Человек-паук: Через вселенные / Spider-Man: Into the Spider-Verse (2018) BDRip 1080p | 60 fps Человек-паук: Через вселенные / Spider-Man: Into the Spider-Verse (2018) BDRip 720p | 60 fps Ральф против интернета / Ralph Breaks the Internet (2018) BDRip 1080p | 60 fps Как приручить дракона 3 / How to Train Your Dragon: The Hidden World (2019) BDRip 1080p | 60 fps Суперсемейка 2 / Incredibles 2 (2018) BDRip 1080p | 60 fps Тайная жизнь домашних животных / The Secret Life of Pets (2016) BDRip 1080p | 60 fps Как приручить дракона 3 / How to Train Your Dragon: The Hidden World (2019) BDRip 720p | 60 fps Смолфут / Smallfoot (2018) BDRip 720p | 60 fps
  1. Longevity:
    4 years 9 months
    Posts:
    2411
    Gender:
    Male
    «Fast & Furry»- Информация
    Название: Большой собачий побег
    Оригинальное название: Ozzy
    Год выхода: 2016
    Жанр: Мультфильм, детский, семейный, приключения, полнометражный
    Режиссер: Альберто Родригез, Начо Ла Каза
    Сценарий: Juan Ramón Ruiz de Somavía
    Продюсер: Джефф Белл, Ибон Корменсана, Филлис Лэйн
    Персонажей озвучивали: Гильермо Ромеро, Дэни Ровира, Хосе Мота, Мишель Хеннер, Карлос Аресес, Фернандо Техеро, Эктор Кантолья, Хуан Фернандес, Эльза Патаки
    --Сюжет:
    Жизнь беспечного бигля Оззи переворачивается с лап на голову, когда, отправляясь в отпуск, семья Мартинов отдает его в элитный спа-отель для собак. Но хозяева не могли и представить, что это всего лишь ловушка, а их любимец окажется в настоящей собачьей тюрьме. Чтобы прорваться через супер-систему охраны и злющих сторожевых псов, Оззи вместе с такими же бедолагами, как он, должен будет спланировать самый хитроумный и дерзкий побег в истории.- Страна: Канада, Испания
    Продолжительность: 01:30:44

    Файл
    Кодек: MPEG4/ISO/AVC/H.264
    Формат: MKV
    Качество: BDRip 720p | 60 fps
    Видео: 1280 x 720 (1.778) | 60.000 fps | 8.0 Мбит/сек
    Аудио: AC3 | 5.1 | 48 kHz | 448 kbps | 16 bit | Дубляж |

    MedifInfo

    Видео
    Идентификатор : 1
    Формат : AVC
    Формат/Информация : Advanced Video Codec
    Профиль формата : High@L4.1
    Параметр CABAC формата : Да
    Параметр ReFrames формата : 5 кадров
    Идентификатор кодека : V_MPEG4/ISO/AVC
    Продолжительность : 1 ч. 30 м.
    Битрейт : 9999 Кбит/сек
    Ширина : 1280 пикселей
    Высота : 720 пикселей
    Соотношение сторон : 16:9
    Режим частоты кадров : Постоянный
    Частота кадров : 60,000 кадров/сек
    Цветовое пространство : YUV
    Субдискретизация насыщенности : 4:2:0
    Битовая глубина : 8 бит
    Тип развёртки : Прогрессивная
    Бит/(Пиксели*Кадры) : 0.181
    Размер потока : 6,21 Гбайт (94%)
    Заголовок : www.60-fps.org
    Библиотека кодирования : x264 core 148 r2638 7599210
    Настройки программы : cabac=1 / ref=5 / deblock=1:-3:-3 / analyse=0x3:0x113 / me=umh / subme=8 / psy=1 / psy_rd=1.00:0.25 / mixed_ref=1 / me_range=32 / chroma_me=1 / trellis=1 / 8x8dct=1 / cqm=0 / deadzone=6,6 / fast_pskip=1 / chroma_qp_offset=-4 / threads=12 / lookahead_threads=2 / sliced_threads=0 / nr=0 / decimate=0 / interlaced=0 / bluray_compat=0 / constrained_intra=0 / bframes=3 / b_pyramid=2 / b_adapt=2 / b_bias=0 / direct=3 / weightb=1 / open_gop=0 / weightp=2 / keyint=600 / keyint_min=59 / scenecut=40 / intra_refresh=0 / rc_lookahead=50 / rc=2pass / mbtree=1 / bitrate=9999 / ratetol=1.0 / qcomp=0.80 / qpmin=0 / qpmax=69 / qpstep=4 / cplxblur=20.0 / qblur=0.5 / vbv_maxrate=62500 / vbv_bufsize=78125 / nal_hrd=none / filler=0 / ip_ratio=1.10 / aq=1:0.50
    Default : Да
    Forced : Нет
    Аудио
    Идентификатор : 2
    Формат : AC-3
    Формат/Информация : Audio Coding 3
    Расширение режима : CM (complete main)
    Параметр Endianness формата : Big
    Идентификатор кодека : A_AC3
    Продолжительность : 1 ч. 30 м.
    Вид битрейта : Постоянный
    Битрейт : 448 Кбит/сек
    Каналы : 6 каналов
    Расположение каналов : Front: L C R, Side: L R, LFE
    Частота : 48,0 КГц
    Битовая глубина : 16 бит
    Метод сжатия : С потерями
    Размер потока : 291 Мбайт (4%)
    Заголовок : Дубляж
    Default : Да
    Forced : Нет

    Release was prepared by 60 - fps



You cannot post new topics in this forum
You cannot reply to topics in this forum
You cannot edit your posts in this forum
You cannot delete your posts in this forum
You cannot vote in polls in this forum
You cannot attach files in this forum
You cannot download files in this forum