Несокрушимый (2018) BDRip 720p | 60 FPS Балканский рубеж (2019) BDRip 1080p | 60 fps Операция «Ы» и другие приключения Шурика (1965) BDRip-AVC | 60 fps Завод (2018) BDRip 1080p | 60 fps Место встречи изменить нельзя (1979) DVDRip | 60 fps Домовой (2019) BDRip 1080p | 60 FPS Брат (1997) HDDVDRip 720p | 60fps Сволочи / Swine (2006) BDRip 1080p | 60fps
  1. Longevity:
    4 years 10 months
    Posts:
    2411
    Gender:
    Male
    «Данила возвращается!»- Информация о фильме
    Название: Брат 2
    Год выхода: 2000
    Жанр: Боевик, криминал.
    Режиссер: Алексей Балабанов
    Сценарий: Алексей Балабанов
    Продюсер: Валери Гобо, Сергей Сельянов
    В ролях: Сергей Бодров мл., Виктор Сухоруков, Сергей Маковецкий, Ирина Салтыкова, Кирилл Пирогов, Александр Дьяченко, Дарья Лесникова, Гари Хьюстон, Рэй Толер, Лиза Джеффри.
    --О фильме:
    Участвуя в программе на телевидении, Данила Багров встречает своих друзей по Чечне. Одного из них внезапно убивают. Данила знает, что у того были неприятности из-за брата-хоккеиста в Америке. Данила должен разобраться. Он вылетает в Америку и для компании берёт с собой брата. Теперь его фотография ходит по рукам русской и американской мафии. Новоявленные «Аль Капоне» понимают, что нарвались на профессионала…- - Страна: Россия, США
    Продолжительность: 02:02:37
    -- Файл
    Кодек: MPEG4/ISO/AVC H.264
    Формат: MKV
    Качество: DVDRip 60 fps
    Видео: 720 x 416 (1.731) | 60.000 fps | 3.8 Мбит/сек
    Аудио: AC-3 | 5.1 | 48 kHz | 448 Кбит/сек | 16 bit |

    MedifInfo

    Видео
    Идентификатор : 1
    Формат : AVC
    Формат/Информация : Advanced Video Codec
    Профиль формата : High@L4.1
    Параметр CABAC формата : Да
    Параметр ReFrames формата : 3 кадра
    Параметр GOP формата : M=3, N=72
    Идентификатор кодека : V_MPEG4/ISO/AVC
    Продолжительность : 2 ч. 2 м.
    Вид битрейта : Переменный
    Битрейт : 3894 Кбит/сек
    Максимальный битрейт : 4000 Кбит/сек
    Ширина : 720 пикселей
    Высота : 416 пикселей
    Соотношение сторон : 1,731
    Режим частоты кадров : Постоянный
    Частота кадров : 60,000 кадров/сек
    Стандарт вещания : PAL
    Цветовое пространство : YUV
    Субдискретизация насыщенности : 4:2:0
    Битовая глубина : 8 бит
    Тип развёртки : Прогрессивная
    Бит/(Пиксели*Кадры) : 0.217
    Размер потока : 3,34 Гбайт (88%)
    Заголовок : www.60-fps.org
    Язык : English
    Default : Да
    Forced : Нет
    Основные цвета : BT.601 NTSC
    Характеристики трансфера : BT.601
    Коэффициенты матрицы : BT.601
    colour_range : Limited
    Аудио
    Идентификатор : 2
    Формат : AC-3
    Формат/Информация : Audio Coding 3
    Расширение режима : CM (complete main)
    Параметр Endianness формата : Big
    Идентификатор кодека : A_AC3
    Продолжительность : 2 ч. 2 м.
    Вид битрейта : Постоянный
    Битрейт : 448 Кбит/сек
    Каналы : 6 каналов
    Расположение каналов : Front: L C R, Side: L R, LFE
    Частота : 48,0 КГц
    Битовая глубина : 16 бит
    Метод сжатия : С потерями
    Размер потока : 393 Мбайт (10%)
    Заголовок : AC3
    Default : Да
    Forced : Нет

    Release was prepared by 60 - fps



    Last edited by Kryl on 2015-10-27 11:19; edited 2 times in total
  2. Longevity:
    4 years 3 months
    Posts:
    97
    Gender:
    Unknown
    Фильм Классный!!!
    Помню в классе у парня появился свитер как у Бодрова в фильме...
    Все реально обзавидовались)))
    27-Oct-2015 10:32 (after 13 minutes)
  3. Longevity:
    4 years 10 months
    Posts:
    2411
    Gender:
    Male
    Исходника нормального нет :ac:
    27-Oct-2015 10:47 (after 14 minutes)
  4. Longevity:
    3 years 5 months
    Posts:
    1
    Gender:
    Unknown
    Однозначно в коллекцию!
    28-Feb-2016 21:51 (after 4 months 1 day)
  5. Longevity:
    2 years 3 months
    Posts:
    7
    Gender:
    Unknown
    Пожалуйста, встаньте на раздачу. Спасибо.
    23-Jul-2017 12:31 (after 1 year 4 months)
  6. Longevity:
    1 year 11 months
    Posts:
    1
    Gender:
    Male
    раз 10 смотрел и еще бы посмотрел в хорошем качестве! Спасибо большое
    08-Sep-2017 21:03 (after 1 month 16 days)
  7. Longevity:
    2 years 2 months
    Posts:
    1
    Gender:
    Unknown
    это золото русского кино
    13-Oct-2017 17:07 (after 1 month 4 days)


You cannot post new topics in this forum
You cannot reply to topics in this forum
You cannot edit your posts in this forum
You cannot delete your posts in this forum
You cannot vote in polls in this forum
You cannot attach files in this forum
You cannot download files in this forum