Lady Gaga - Bad Romance (2009) Master | ProRes Jennifer Lopez - Waiting For Tonight (1999) 540p | Master | ProRes Ariana Grande The Weeknd - Love Me Harder (2014) Master | ProRes Lady Gaga - Poker Face (2009) Master | ProRes Lady Gaga - Paparazzi (2009) Master | ProRes Britney Spears - Hold It Against Me (2011) Master | ProRes INNA - J'Adore (2012) Master | ProRes Jennifer Lopez - I'm Into You ft. Lil Wayne (2011) Master | ProRes
  1. Longevity:
    4 years 9 months
    Posts:
    2411
    Gender:
    Male
    -Bruno Mars - 24K Magic (2016) Master | ProRes --Информация о Клипе
    Исполнитель: Bruno Mars
    Название: 24K Magic
    Год выхода: 2016
    Продолжительность: 00:03:56-Описание:
    «24K Magic» («twenty-four karat magic») — песня американского певца Бруно Марса с его третьего одноимённого студийного альбома 24K Magic (2016).
    «24k Magic» впервые вышла в эфире радиостанции Mix 104.1 в полночь на 7 октября 2016 года. Релиз сингла прошёл 7 октября через цифровое скачивание лейбла Atlantic Records. Этим лейблом запланирован выход трека 11 октября на радиостанции American contemporary hit radio. Песня также доступна по стримингу.
    «24k Magic» сочетает стили фанк, диско, R&B и хип-хоп. Песня начинается с изменённого вокодер-вокала, который сравнивают с песней «California Love» рэпера Тупак Шакура. Также описывается как «synth-heavy track» и с элементами музыки 70-х и 80-х годов. Льюис Корнер из Digital Spy прокомментировал, что это песня более «smooth '80s electronica and hip-hop», чем «'70s groove of „Uptown Funk“».
    24K Magic получила положительные отзывы музыкальной критики и специализированных сайтов.
    -Файл
    Кодек: APCH
    Контейнер: MOV
    Формат: ProRes
    Качество: Master
    Видео: 1920 x 1080 (1.778) | 29.970 fps | 211 Мбит/сек
    Аудио: PCM | 1536 Кбит/сек | 2.0 канала | 48.0 КГц | 16 бит

    MediaInfo

    Видео
    Идентификатор : 1
    Формат : ProRes
    Версия формата : Version 0
    Профиль формата : High
    Идентификатор кодека : apch
    Продолжительность : 3 м. 56 с.
    Вид битрейта : Переменный
    Битрейт : 211 Мбит/сек
    Ширина : 1920 пикселей
    Высота : 1080 пикселей
    Соотношение сторон : 16:9
    Режим частоты кадров : Постоянный
    Частота кадров : 29,970 кадров/сек
    Цветовое пространство : YUV
    Субдискретизация насыщенности : 4:2:2
    Тип развёртки : Чересстрочная
    Порядок развёртки : Верхнее поле первое
    Бит/(Пиксели*Кадры) : 3.395
    Размер потока : 5,82 Гбайт (99%)
    Библиотека кодирования : Apple
    Язык : English
    Дата кодирования : UTC 2016-10-14 19:32:33
    Дата пометки : UTC 2016-10-14 19:32:33
    Основные цвета : BT.709
    Характеристики трансфера : BT.709
    Коэффициенты матрицы : BT.709
    Аудио
    Идентификатор : 2
    Формат : PCM
    Параметр Endianness формата : Little
    Параметр Sign формата : Signed
    Идентификатор кодека : sowt
    Продолжительность : 3 м. 56 с.
    Вид битрейта : Постоянный
    Битрейт : 1536 Кбит/сек
    Каналы : 2 канала
    Расположение каналов : Front: L R
    Частота : 48,0 КГц
    Битовая глубина : 16 бит
    Размер потока : 43,4 Мбайт (1%)
    Язык : English
    Дата кодирования : UTC 2016-10-14 19:32:33
    Дата пометки : UTC 2016-10-14 19:32:33
    Текст
    Идентификатор : 3-CC1
    Формат : EIA-608
    Режим смешивания : Final Cut
    Идентификатор кодека : c608
    Продолжительность : 3 м. 56 с.
    Продолжительность оригинала : 3 м. 49 с.
    Вид битрейта : Постоянный
    Размер потока : 0,00 байт (0%)
    Размер потока оригинала : 38,0 Кбайт (0%)
    Язык : English
    Дата кодирования : UTC 2016-10-14 19:32:33
    Дата пометки : UTC 2016-10-14 19:32:33
    Source_Delay : 7040
    Source_Delay_Source : Container
    Прочее
    Идентификатор : 4
    Тип : Time code
    Формат : QuickTime TC
    Продолжительность : 3 м. 56 с.
    Временной код первого кадра : 00:00:00;00
    TimeCode_Striped/String : Да
    Язык : English
    Дата кодирования : UTC 2016-10-14 19:32:33
    Дата пометки : UTC 2016-10-14 19:32:33

    Release was prepared by 60 - fps



You cannot post new topics in this forum
You cannot reply to topics in this forum
You cannot edit your posts in this forum
You cannot delete your posts in this forum
You cannot vote in polls in this forum
You cannot attach files in this forum
You cannot download files in this forum