Богемская рапсодия /Bohemian Rhapsody (2018) BDRip 1080p | 60 fps Властелин колец: Трилогия / The Lord of the Rings: Trilogy (2001-2003) BDRip-AVC | Extended Cut | 60 fps Репродукция / Replicas (2018) BDRip 720p | 60 fps Щелкунчик и четыре королевства / The Nutcracker and the Four Realms (2018) BDRip 1080p | 60 fps Маугли / Mowgli (2018) BDRip 720p | 60 fps Джон Уик / John Wick (2014) BDRip 720p | 60 fps Апгрейд / Upgrade (2018) BDRip 1080p | 60 fps Аксель / A-X-L (2018) BDRip 1080p | 60 fps
  1. Longevity:
    4 years 9 months
    Posts:
    2411
    Gender:
    Male
    Информация
    Название: Чужие против Хищника: Реквием
    Оригинальное название: AVPR: Aliens vs Predator - Requiem
    Год выхода: 2007
    Жанр: ужасы, фантастика, боевик, триллер
    В ролях: Стивен Паскуале, Рейко Эйлсворт, Джон Ортис, Джонни Льюис, Эриель Гейд, Кристен Хагер, Сэм Трэммелл, Роберт Джой, Дэвид Петкау, Том Вудрафф мл.

    Сюжет:
    Атакованный «Предалиеном» — жутким гибридом Хищника и Чужого — корабль Хищников терпит крушение в лесах, окружающих маленький городок штата Колорадо. И пока на сигнал о помощи, посланный в момент падения, спешит подкрепление, Чужие успевают инфицировать половину населения города.

    Файл
    Продолжительность: 01:41:05
    Кодек: H.264
    Формат: MKV
    Качество: BDRip 1080p | 60 fps
    Видео: 1920 x 800 (2.400) | 59,940 (60000/1001) кадров/сек | 15.0 Мбит/сек
    Аудио: AC3 | 5.1 | 48 kHz | 640 kbps | 16 bit | Дубляж

    MedifInfo

    Видео
    Идентификатор : 1
    Формат : AVC
    Формат/Информация : Advanced Video Codec
    Профиль формата : High@L4.1
    Настройки формата : CABAC / 4 Ref Frames
    Параметр CABAC формата : Да
    Параметр RefFrames формата : 4 кадра
    Идентификатор кодека : V_MPEG4/ISO/AVC
    Продолжительность : 1 ч. 41 м.
    Битрейт : 15,0 Мбит/сек
    Ширина : 1920 пикселей
    Высота : 800 пикселей
    Соотношение сторон : 2,40:1
    Режим частоты кадров : Постоянный
    Частота кадров : 59,940 (60000/1001) кадров/сек
    Цветовое пространство : YUV
    Субдискретизация насыщенности : 4:2:0
    Битовая глубина : 8 бит
    Тип развёртки : Прогрессивная
    Бит/(Пиксели*Кадры) : 0.163
    Размер потока : 10,5 Гбайт (96%)
    Заголовок : Чужие против Хищника: Реквием / AVPR: Aliens vs Predator - Requiem (2007) BDRip 1080p | 60 fps
    Библиотека кодирования : x264 core 152 r2851 ba24899
    Настройки программы : cabac=1 / ref=3 / deblock=1:-3:-3 / analyse=0x3:0x113 / me=hex / subme=8 / psy=1 / psy_rd=1.00:0.25 / mixed_ref=1 / me_range=16 / chroma_me=1 / trellis=1 / 8x8dct=1 / cqm=0 / deadzone=6,6 / fast_pskip=1 / chroma_qp_offset=-4 / threads=12 / lookahead_threads=2 / sliced_threads=0 / nr=0 / decimate=0 / interlaced=0 / bluray_compat=0 / constrained_intra=0 / bframes=3 / b_pyramid=2 / b_adapt=1 / b_bias=0 / direct=1 / weightb=1 / open_gop=0 / weightp=2 / keyint=599 / keyint_min=59 / scenecut=40 / intra_refresh=0 / rc_lookahead=40 / rc=2pass / mbtree=1 / bitrate=14999 / ratetol=1.0 / qcomp=0.80 / qpmin=0 / qpmax=69 / qpstep=4 / cplxblur=20.0 / qblur=0.5 / vbv_maxrate=62500 / vbv_bufsize=78125 / nal_hrd=none / filler=0 / ip_ratio=1.10 / aq=1:0.50
    Default : Да
    Forced : Нет
    Аудио
    Идентификатор : 2
    Формат : AC-3
    Формат/Информация : Audio Coding 3
    Идентификатор кодека : A_AC3
    Продолжительность : 1 ч. 41 м.
    Вид битрейта : Постоянный
    Битрейт : 640 Кбит/сек
    Каналы : 6 каналов
    Расположение каналов : Front: L C R, Side: L R, LFE
    Частота : 48,0 КГц
    Частота кадров : 31,250 кадров/сек (1536 SPF)
    Битовая глубина : 16 бит
    Метод сжатия : С потерями
    Размер потока : 463 Мбайт (4%)
    ServiceKind/String : Complete Main
    Default : Да
    Forced : Нет


You cannot post new topics in this forum
You cannot reply to topics in this forum
You cannot edit your posts in this forum
You cannot delete your posts in this forum
You cannot vote in polls in this forum
You cannot attach files in this forum
You cannot download files in this forum