Sheri Vi Tantalizes Nikolas With Her Oral Skills (2015) HD 1080p | 60 fps Leah Gotti-Wet Wild And Hot (2017) Full HD 1080p | 60 fps Honey Gold (2017) HD 720p | 60 fps Feeling Every Drop (2018) Ultra HD | 60 fps OVERCROTCHPARODY (2017) Full HD 1080p | 3D-Video | HSBS | 60 fps Anjelica - You Belong To Me (2012) HD 1080p | 60 fps Sensual Dreaming (2016) HD 1080p | 60 fps Preppy Girl Threesome Get Three BBCs (2016) HD 1080p | 60 fps
  1. Longevity:
    2 years 10 months
    Posts:
    924
    Gender:
    Male
    Информация
    Название: CZECH VR
    Год выхода: 2017
    Жанр: Big Tits POV Brunette 60 FPS 4K Ultra HD
    В ролях: ---
    --Сюжет:
    4k Porn Big Tits Brunette Pov Czech Vr
    Страна: США
    Продолжительность: 00:15:41

    Файл
    Кодек: MPEG4/ISO/AVC High@L5.1
    Формат: MP4
    Качество: 4K Ultra HD 2160p | 3D-Video | 60 fps
    Видео: 4320 x 2160 (2.000) | 60.000 fps | 20 Мбит/сек
    Аудио: AAC | 2.0 | 48 kHz |256 Кбит/сек | 16 bit | ENG |

    MedifInfo

    Видео
    Идентификатор : 1
    Формат : AVC
    Формат/Информация : Advanced Video Codec
    Профиль формата : High@L5.1
    Параметр CABAC формата : Да
    Параметр ReFrames формата : 5 кадров
    Идентификатор кодека : avc1
    Идентификатор кодека/Информация : Advanced Video Coding
    Продолжительность : 15 м. 41 с.
    Битрейт : 20,0 Мбит/сек
    Ширина : 4320 пикселей
    Высота : 2160 пикселей
    Соотношение сторон : 2,000
    Режим частоты кадров : Постоянный
    Частота кадров : 60,000 кадров/сек
    Цветовое пространство : YUV
    Субдискретизация насыщенности : 4:2:0
    Битовая глубина : 8 бит
    Тип развёртки : Прогрессивная
    Бит/(Пиксели*Кадры) : 0.036
    Размер потока : 2,21 Гбайт (99%)
    Библиотека кодирования : x264 core 152 r19 ba24899
    Настройки программы : cabac=1 / ref=5 / deblock=1:-1:-1 / analyse=0x3:0x113 / me=hex / subme=8 / psy=1 / psy_rd=1.00:0.15 / mixed_ref=1 / me_range=16 / chroma_me=1 / trellis=2 / 8x8dct=1 / cqm=0 / deadzone=21,11 / fast_pskip=1 / chroma_qp_offset=-3 / threads=4 / lookahead_threads=1 / sliced_threads=0 / nr=0 / decimate=1 / interlaced=0 / bluray_compat=0 / constrained_intra=0 / bframes=3 / b_pyramid=2 / b_adapt=1 / b_bias=0 / direct=3 / weightb=1 / open_gop=0 / weightp=2 / keyint=250 / keyint_min=25 / scenecut=0 / intra_refresh=0 / rc_lookahead=50 / rc=abr / mbtree=1 / bitrate=20000 / ratetol=1.0 / qcomp=0.60 / qpmin=0 / qpmax=69 / qpstep=4 / ip_ratio=1.40 / aq=1:1.00
    Аудио
    Идентификатор : 2
    Формат : AAC
    Формат/Информация : Advanced Audio Codec
    Профиль формата : LC
    Идентификатор кодека : 40
    Продолжительность : 15 м. 41 с.
    Duration_LastFrame : -6 мс.
    Вид битрейта : Постоянный
    Битрейт : 256 Кбит/сек
    Каналы : 2 канала
    Расположение каналов : Front: L R
    Частота : 44,1 КГц
    Частота кадров : 43,066 кадра/сек (1024 spf)
    Метод сжатия : С потерями
    Размер потока : 28,7 Мбайт (1%)
    Default : Да
    Alternate group : 1

    Скрин



    Last edited by Талямба on 2017-09-12 10:47; edited 1 time in total
  2. Longevity:
    2 years 10 months
    Posts:
    924
    Gender:
    Male
    пока без скринов,по техническим причинам... Эмо
    11-Sep-2017 21:48 (after 3 minutes)
  3. Longevity:
    2 years 4 months
    Posts:
    21
    Gender:
    Male
    8480пока без скринов,по техническим причинам... Эмо
    Скажите пожалуйста, на телевизоре можно будет посмотреть?
    12-Sep-2017 13:31 (after 15 hours)
  4. Longevity:
    2 years 10 months
    Posts:
    924
    Gender:
    Male
    Taganiyaz, если телик может приобразовывать в 3D,то конечно можно...
    На теликах LG я сам проверял,без проблем показывает... !
    12-Sep-2017 14:34 (after 1 hour 3 minutes)
  5. Longevity:
    2 years 8 months
    Posts:
    99
    Gender:
    Male
    8484
    Скажите, пожалуйста, на телевизоре можно будет посмотреть?
    А смысл? Это видео для очков виртуальной реальности
    12-Sep-2017 22:05 (after 7 hours)
  6. Longevity:
    2 years 10 months
    Posts:
    924
    Gender:
    Male
    Cynep, сфигали ?
    На телике тоже показывает,в очках мжно на 360 градусов крутиться,это видео отрожает эффект присутствия,если ваш телек с хорошим видео процессором,он покажет всё так,как нужно Что же делать
    12-Sep-2017 22:12 (after 7 minutes)
  7. Longevity:
    2 years 4 months
    Posts:
    21
    Gender:
    Male
    8487Taganiyaz, если телик может приобразовывать в 3D,то конечно можно...
    На теликах LG я сам проверял,без проблем показывает... !
    Ок, спасибо. К сожалению нет ни того ни другого.
    13-Sep-2017 07:40 (after 9 hours)


You cannot post new topics in this forum
You cannot reply to topics in this forum
You cannot edit your posts in this forum
You cannot delete your posts in this forum
You cannot vote in polls in this forum
You cannot attach files in this forum
You cannot download files in this forum