Несокрушимый (2018) BDRip 720p | 60 FPS Операция «Ы» и другие приключения Шурика (1965) BDRip-AVC | 60 fps Место встречи изменить нельзя (1979) DVDRip | 60 fps Завод (2018) BDRip 1080p | 60 fps Балканский рубеж (2019) BDRip 1080p | 60 fps Танки (2018) BDRip 1080p | 60 FPS Сволочи / Swine (2006) BDRip 1080p | 60fps Гоголь. Страшная месть (2018) BDRip 1080p | 60 FPS
  1. Longevity:
    4 years 9 months
    Posts:
    2411
    Gender:
    Male
    Дамы приглашают кавалеров (1980) DVDRip | 60 fps- Информация
    Название: Дамы приглашают кавалеров
    Год выхода: 1980
    Жанр: Комедия
    Режиссер: Иван Киасашвили
    Cценарий: Александр Бородянский, Карен Шахназаров, Лев Славин
    В ролях: Марина Неелова, Наталья Андрейченко, Мария Виноградова, Татьяна Божок, Леонид Куравлев, Александр Фатюшин, Николай Караченцов, Валерий Носик, Александр Соловьев, Гия Перадзе, Николай Скоробогатов, Петр Олев, Людмила Иванова, Геннадий Ялович
    --Сюжет:
    На кавказский курорт из провинциального городка приезжает впервые в жизни добрая, жизнерадостная и чистосердечная продавщица Аня, не скрывая своего желания найти себе жениха. Много грустных и забавных приключений ей предстоит пережить до того, как одинокий и неприкаянный Саня сделает ей предложение...- Страна: СССР
    Продолжительность: 01:11:57

    Файл
    Кодек: MPEG4/ISO/AVC H.264
    Формат: MKV
    Качество: DVDRip | 60 fps
    Видео: 704 x 512 (1.375) | 60.000 fps | 4.0 Мбит/сек
    Аудио: AC-3 | 5.1 | 48 kHz | 448 kbps | 16 bit

    MediaInfo

    Видео
    Идентификатор : 1
    Формат : AVC
    Формат/Информация : Advanced Video Codec
    Профиль формата : High@L4.1
    Параметр CABAC формата : Да
    Параметр ReFrames формата : 5 кадров
    Идентификатор кодека : V_MPEG4/ISO/AVC
    Продолжительность : 1 ч. 11 м.
    Битрейт : 3999 Кбит/сек
    Ширина : 704 пикселя
    Высота : 512 пикселей
    Соотношение сторон : 1,375
    Режим частоты кадров : Постоянный
    Частота кадров : 60,000 кадров/сек
    Цветовое пространство : YUV
    Субдискретизация насыщенности : 4:2:0
    Битовая глубина : 8 бит
    Тип развёртки : Прогрессивная
    Бит/(Пиксели*Кадры) : 0.185
    Размер потока : 1,97 Гбайт (88%)
    Заголовок : www.60-fps.org
    Библиотека кодирования : x264 core 148 r2744 b97ae06
    Настройки программы : cabac=1 / ref=5 / deblock=1:-3:-3 / analyse=0x3:0x113 / me=umh / subme=8 / psy=1 / psy_rd=1.00:0.25 / mixed_ref=1 / me_range=32 / chroma_me=1 / trellis=1 / 8x8dct=1 / cqm=0 / deadzone=6,6 / fast_pskip=1 / chroma_qp_offset=-4 / threads=12 / lookahead_threads=2 / sliced_threads=0 / nr=0 / decimate=0 / interlaced=0 / bluray_compat=0 / constrained_intra=0 / bframes=3 / b_pyramid=2 / b_adapt=1 / b_bias=0 / direct=3 / weightb=1 / open_gop=0 / weightp=2 / keyint=600 / keyint_min=60 / scenecut=40 / intra_refresh=0 / rc_lookahead=50 / rc=2pass / mbtree=1 / bitrate=3999 / ratetol=1.0 / qcomp=0.80 / qpmin=0 / qpmax=69 / qpstep=4 / cplxblur=20.0 / qblur=0.5 / vbv_maxrate=62500 / vbv_bufsize=78125 / nal_hrd=none / filler=0 / ip_ratio=1.10 / aq=1:0.50
    Default : Да
    Forced : Нет
    Аудио
    Идентификатор : 2
    Формат : AC-3
    Формат/Информация : Audio Coding 3
    Расширение режима : CM (complete main)
    Параметр Endianness формата : Big
    Идентификатор кодека : A_AC3
    Продолжительность : 1 ч. 11 м.
    Вид битрейта : Постоянный
    Битрейт : 448 Кбит/сек
    Каналы : 6 каналов
    Расположение каналов : Front: L C R, Side: L R, LFE
    Частота : 48,0 КГц
    Битовая глубина : 16 бит
    Метод сжатия : С потерями
    Размер потока : 231 Мбайт (10%)
    Default : Да
    Forced : Нет

    Release was prepared by 60 - fps



You cannot post new topics in this forum
You cannot reply to topics in this forum
You cannot edit your posts in this forum
You cannot delete your posts in this forum
You cannot vote in polls in this forum
You cannot attach files in this forum
You cannot download files in this forum