Человек-паук: Через вселенные / Spider-Man: Into the Spider-Verse (2018) BDRip 1080p | 60 fps Человек-паук: Через вселенные / Spider-Man: Into the Spider-Verse (2018) BDRip 720p | 60 fps Ральф против интернета / Ralph Breaks the Internet (2018) BDRip 1080p | 60 fps Как приручить дракона 3 / How to Train Your Dragon: The Hidden World (2019) BDRip 1080p | 60 fps Суперсемейка 2 / Incredibles 2 (2018) BDRip 1080p | 60 fps Тайная жизнь домашних животных / The Secret Life of Pets (2016) BDRip 1080p | 60 fps Как приручить дракона 3 / How to Train Your Dragon: The Hidden World (2019) BDRip 720p | 60 fps Смолфут / Smallfoot (2018) BDRip 720p | 60 fps
  1. Longevity:
    4 years 9 months
    Posts:
    2411
    Gender:
    Male
    «Создан для борьбы. Рождён для любви» Информация
    Название: Фердинанд
    Оригинальное название: Ferdinand
    Год выхода: 2017
    Жанр: Семейный, комедия, мультфильм
    Режиссер: Карлос Салдана
    Сценарий: Роберт Л. Бейрд, Тим Федерле
    Продюсер: Джон Дэвис, Лиза Мэри Стетлер
    Персонажей озвучивали: Дуэйн Джонсон, Кевин Харт, Джек Блэк, Карен Гиллан, Риз Дэрби, Бобби Каннавейл, Ник Джонас, Алекс Вулф, Сер’Дариус Блэйн, Мэдисон Исман

    Сюжет:
    Фердинанд — самый добродушный бык во всей Испании. Несмотря на внушительные размеры и недюжинную силу, он с детства предпочитал сидеть на лужайке и любоваться цветами вместо того, чтобы бодаться с другими быками. По нелепой случайности Фердинанд был выбран среди других соплеменников для участия в бое быков в Мадриде.

    Страна: США
    Продолжительность: 01:48:05

    Файл
    Кодек: H.264
    Формат: MKV
    Качество: BDRip 720p | 60 fps
    Видео: 1280 x 536 (2.388) | 59.940 fps | 7.0 Мбит/сек
    Аудио 01: AC3 | 5.1 | 48 kHz | 640 kbps | 16 bit | Дубляж - Лицензия |
    Аудио 02: AC3 | 5.1 | 48 kHz | 448 kbps | 16 bit | Дубляж - Лицензия |
    Аудио 03: AC3 | 5.1 | 48 kHz | 640 kbps | 16 bit | English |
    Субтитры: Русские, английские

    MedifInfo

    Видео
    Идентификатор : 1
    Формат : AVC
    Формат/Информация : Advanced Video Codec
    Профиль формата : High@L4.1
    Параметр CABAC формата : Да
    Параметр ReFrames формата : 3 кадра
    Идентификатор кодека : V_MPEG4/ISO/AVC
    Продолжительность : 1 ч. 48 м.
    Вид битрейта : Переменный
    Битрейт : 6798 Кбит/сек
    Максимальный битрейт : 7000 Кбит/сек
    Ширина : 1280 пикселей
    Высота : 536 пикселей
    Соотношение сторон : 2,40:1
    Режим частоты кадров : Постоянный
    Частота кадров : 59,880 кадров/сек
    Частота кадров в оригинале : 59,940 кадров/сек
    Стандарт вещания : PAL
    Цветовое пространство : YUV
    Субдискретизация насыщенности : 4:2:0
    Битовая глубина : 8 бит
    Тип развёртки : Прогрессивная
    Бит/(Пиксели*Кадры) : 0.165
    Размер потока : 5,14 Гбайт (78%)
    Заголовок : www.60-fps.org
    Язык : English
    Default : Да
    Forced : Нет
    Основные цвета : BT.601 NTSC
    Характеристики трансфера : BT.601
    Коэффициенты матрицы : BT.601
    colour_range : Limited
    Аудио #1
    Идентификатор : 2
    Формат : AC-3
    Формат/Информация : Audio Coding 3
    Расширение режима : CM (complete main)
    Параметр Endianness формата : Big
    Идентификатор кодека : A_AC3
    Продолжительность : 1 ч. 48 м.
    Вид битрейта : Постоянный
    Битрейт : 640 Кбит/сек
    Каналы : 6 каналов
    Расположение каналов : Front: L C R, Side: L R, LFE
    Частота : 48,0 КГц
    Битовая глубина : 16 бит
    Метод сжатия : С потерями
    Размер потока : 495 Мбайт (7%)
    Заголовок : Дубляж - лицензия
    Язык : Russian
    Default : Да
    Forced : Нет
    Аудио #2
    Идентификатор : 3
    Формат : AC-3
    Формат/Информация : Audio Coding 3
    Расширение режима : CM (complete main)
    Параметр Endianness формата : Big
    Идентификатор кодека : A_AC3
    Продолжительность : 1 ч. 48 м.
    Вид битрейта : Постоянный
    Битрейт : 448 Кбит/сек
    Каналы : 6 каналов
    Расположение каналов : Front: L C R, Side: L R, LFE
    Частота : 48,0 КГц
    Битовая глубина : 16 бит
    Метод сжатия : С потерями
    Размер потока : 347 Мбайт (5%)
    Заголовок : Дубляж - лицензия
    Язык : Ukrainian
    Default : Нет
    Forced : Нет
    Аудио #3
    Идентификатор : 4
    Формат : AC-3
    Формат/Информация : Audio Coding 3
    Расширение режима : CM (complete main)
    Параметр Endianness формата : Big
    Идентификатор кодека : A_AC3
    Продолжительность : 1 ч. 48 м.
    Вид битрейта : Постоянный
    Битрейт : 640 Кбит/сек
    Каналы : 6 каналов
    Расположение каналов : Front: L C R, Side: L R, LFE
    Частота : 48,0 КГц
    Битовая глубина : 16 бит
    Метод сжатия : С потерями
    Размер потока : 495 Мбайт (7%)
    Заголовок : english
    Язык : English
    Default : Нет
    Forced : Нет
    Текст #1
    Идентификатор : 5
    Формат : UTF-8
    Идентификатор кодека : S_TEXT/UTF8
    Идентификатор кодека/Информация : UTF-8 Plain Text
    Заголовок : Full
    Язык : Russian
    Default : Нет
    Forced : Нет
    Текст #2
    Идентификатор : 6
    Формат : UTF-8
    Идентификатор кодека : S_TEXT/UTF8
    Идентификатор кодека/Информация : UTF-8 Plain Text
    Заголовок : Full
    Язык : Ukrainian
    Default : Нет
    Forced : Нет
    Текст #3
    Идентификатор : 7
    Формат : UTF-8
    Идентификатор кодека : S_TEXT/UTF8
    Идентификатор кодека/Информация : UTF-8 Plain Text
    Заголовок : Full
    Язык : English
    Default : Нет
    Forced : Нет
    Текст #4
    Идентификатор : 8
    Формат : UTF-8
    Идентификатор кодека : S_TEXT/UTF8
    Идентификатор кодека/Информация : UTF-8 Plain Text
    Заголовок : SDH
    Язык : English
    Default : Нет
    Forced : Нет
    Меню
    00:00:00.000 : en:Chapter 1
    00:03:37.800 : en:Chapter 2
    00:08:10.281 : en:Chapter 3
    00:11:51.460 : en:Chapter 4
    00:16:23.524 : en:Chapter 5
    00:24:14.870 : en:Chapter 6
    00:28:30.458 : en:Chapter 7
    00:34:03.124 : en:Chapter 8
    00:37:53.187 : en:Chapter 9
    00:40:54.160 : en:Chapter 10
    00:44:55.359 : en:Chapter 11
    00:49:15.994 : en:Chapter 12
    00:53:27.245 : en:Chapter 13
    00:59:40.952 : en:Chapter 14
    01:03:20.671 : en:Chapter 15
    01:06:23.270 : en:Chapter 16
    01:09:19.822 : en:Chapter 17
    01:12:18.917 : en:Chapter 18
    01:17:33.940 : en:Chapter 19
    01:20:55.058 : en:Chapter 20
    01:25:33.837 : en:Chapter 21
    01:30:38.391 : en:Chapter 22
    01:36:01.839 : en:Chapter 23
    01:38:01.166 : en:Chapter 24

    Release was prepared by 60 - fps



You cannot post new topics in this forum
You cannot reply to topics in this forum
You cannot edit your posts in this forum
You cannot delete your posts in this forum
You cannot vote in polls in this forum
You cannot attach files in this forum
You cannot download files in this forum