Lady Gaga - Bad Romance (2009) Master | ProRes Jennifer Lopez - Waiting For Tonight (1999) 540p | Master | ProRes Ariana Grande The Weeknd - Love Me Harder (2014) Master | ProRes Lady Gaga - Poker Face (2009) Master | ProRes Lady Gaga - Paparazzi (2009) Master | ProRes Britney Spears - Hold It Against Me (2011) Master | ProRes INNA - J'Adore (2012) Master | ProRes Jennifer Lopez - I'm Into You ft. Lil Wayne (2011) Master | ProRes
  1. Longevity:
    4 years 9 months
    Posts:
    2411
    Gender:
    Male
    -Lady Gaga - Poker Face (2009) Master | ProRes --Информация о Клипе
    Исполнитель: Lady Gaga
    Название: Poker Face
    Год выхода: 2009
    Продолжительность: 00:03:35/00:04:10-Описание:
    Клип на песню снят режиссёром Рэй Кей при помощи Энтони Мэндлера. Съёмки проходили на роскошной вилле bwin «PokerIsland». Премьера клипа состоялась 22 октября 2008 года. Действие клипа начинается с того, что Гага вылезает из бассейна в чёрном купальнике с маской на лице, позже она отбрасывает маску в сторону и начинает петь. В сцене танцев у бассейна она появляется в бирюзовом купальнике. По ходу видео Гага посещает дикие вечеринки, где её пытаются обыграть в покер на раздевание. Видео собрало много наград, в том числе, 21 июня 2009 года, оно получило награду в номинации «Лучшее международное видео» на церемонии «MuchMusic Video Awards 2009», а также получило 4 номинации, наряду с пятью номинациями песни «Paparazzi», на церемонии MTV «Video Music Awards 2009»: «Лучшее видео», «Лучшее женское видео», «Лучшее поп-видео», «Лучший новый артист», и победило в номинации «Лучший новый артист».
    «Poker Face» (с англ.- «непроницаемое, бесстрастное лицо», произносится «по?кэ фэ?йс») — песня американской певицы Lady Gaga из её дебютного альбома «The Fame». Песня является вторым синглом с альбома «The Fame»; сингл был выпущен в конце 2008 года, а в некоторых странах в начале 2009 года.
    В тексте песни с помощью двусмысленных выражений обыгрывается тема родственности секса и азартной игры.
    -

    Lady Gaga - Poker Face 1080p

    Файл
    Контейнер: MOV
    Формат: AVC
    Качество: Master
    Видео: 1920 x 1080 (1.778) | 23.976 fps | 108 Мбит/сек
    Аудио: PCM | 1536 Кбит/сек | 2.0 канала | 48.0 КГц | 16 бит

    MI

    Формат : MPEG-4
    Профиль формата : QuickTime
    Идентификатор кодека : qt
    Размер файла : 2,76 Гбайт
    Продолжительность : 3 м. 35 с.
    Режим общего битрейта : Переменный
    Общий поток : 110 Мбит/сек
    Дата кодирования : UTC 2015-03-13 12:58:58
    Дата пометки : UTC 2015-03-13 13:58:09
    Библиотека кодирования : Apple QuickTime
    ©TIM : 00:00:00:00
    ©TSC : 25
    ©TSZ : 1
    Видео
    Идентификатор : 1
    Формат : AVC
    Формат/Информация : Advanced Video Codec
    Профиль формата : Main@L5.1
    Параметр CABAC формата : Нет
    Параметр ReFrames формата : 2 кадра
    Параметр GOP формата : N=1
    Идентификатор кодека : avc1
    Идентификатор кодека/Информация : Advanced Video Coding
    Продолжительность : 3 м. 35 с.
    Вид битрейта : Переменный
    Битрейт : 108 Мбит/сек
    Ширина : 1920 пикселей
    Высота : 1080 пикселей
    Соотношение сторон : 16:10
    Соотношение сторон в оригинале : 16:9
    Режим частоты кадров : Постоянный
    Частота кадров : 25,000 кадров/сек
    Цветовое пространство : YUV
    Субдискретизация насыщенности : 4:2:0
    Битовая глубина : 8 бит
    Тип развёртки : Прогрессивная
    Бит/(Пиксели*Кадры) : 2.090
    Размер потока : 2,72 Гбайт (99%)
    Язык : English
    Дата кодирования : UTC 2015-03-13 12:58:58
    Дата пометки : UTC 2015-03-13 13:58:09
    Основные цвета : BT.709
    Характеристики трансфера : BT.709
    Коэффициенты матрицы : BT.709
    colour_range : Limited
    Аудио
    Идентификатор : 2
    Формат : PCM
    Параметр Endianness формата : Little
    Параметр Sign формата : Signed
    Идентификатор кодека : sowt
    Продолжительность : 3 м. 35 с.
    Продолжительность оригинала : 3 м. 35 с.
    Вид битрейта : Постоянный
    Битрейт : 1536 Кбит/сек
    Каналы : 2 канала
    Расположение каналов : Front: L R
    Частота : 48,0 КГц
    Битовая глубина : 16 бит
    Размер потока : 39,4 Мбайт (1%)
    Размер потока оригинала : 39,5 Мбайт (1%)
    Язык : English
    Дата кодирования : UTC 2015-03-13 12:58:59
    Дата пометки : UTC 2015-03-13 13:58:09
    Прочее
    Идентификатор : 3
    Тип : Time code
    Формат : QuickTime TC
    Продолжительность : 3 м. 35 с.
    Временной код первого кадра : 00:00:00:00
    TimeCode_Striped/String : Да
    Язык : English
    Дата кодирования : UTC 2015-03-13 13:58:08
    Дата пометки : UTC 2015-03-13 13:58:09

    Lady Gaga - Poker Face 576i

    Файл
    Кодек: APCH
    Контейнер: MOV
    Формат: ProRes
    Качество: Master
    Видео: 720 x 576 (1.334) | 25.000 fps | 48 Мбит/сек
    Аудио: PCM | 2304 Кбит/сек | 2.0 канала | 48.0 КГц | 24 бит

    MI

    Формат : MPEG-4
    Профиль формата : QuickTime
    Идентификатор кодека : qt
    Размер файла : 1,47 Гбайт
    Продолжительность : 4 м. 10 с.
    Режим общего битрейта : Переменный
    Общий поток : 50,3 Мбит/сек
    Программа кодирования : Lavf57.19.100
    Видео
    Идентификатор : 1
    Формат : ProRes
    Версия формата : Version 0
    Профиль формата : High
    Идентификатор кодека : apch
    Продолжительность : 4 м. 10 с.
    Вид битрейта : Переменный
    Битрейт : 48,0 Мбит/сек
    Ширина : 720 пикселей
    Высота : 576 пикселей
    Соотношение сторон : 4:3
    Режим частоты кадров : Постоянный
    Частота кадров : 25,000 кадров/сек
    Стандарт вещания : PAL
    Цветовое пространство : YUV
    Субдискретизация насыщенности : 4:2:2
    Тип развёртки : Чересстрочная
    Тип развёртки в оригинале : Прогрессивная
    Порядок развёртки : Верхнее поле первое
    Бит/(Пиксели*Кадры) : 4.632
    Размер потока : 1,40 Гбайт (95%)
    Библиотека кодирования : fmpg
    Язык : English
    Коэффициенты матрицы : BT.601
    Аудио
    Идентификатор : 2
    Формат : PCM
    Параметр Endianness формата : Little
    Параметр Sign формата : Unsigned
    Идентификатор кодека : in24
    Продолжительность : 4 м. 10 с.
    Продолжительность оригинала : 4 м. 10 с.
    Вид битрейта : Постоянный
    Битрейт : 2304 Кбит/сек
    Каналы : 2 канала
    Расположение каналов : Front: L R
    Частота : 48,0 КГц
    Битовая глубина : 24 бит
    Размер потока : 68,8 Мбайт (5%)
    Размер потока оригинала : 68,8 Мбайт (5%)
    Язык : English
    mdhd_Duration : 250522

    Release was prepared by 60 - fps



You cannot post new topics in this forum
You cannot reply to topics in this forum
You cannot edit your posts in this forum
You cannot delete your posts in this forum
You cannot vote in polls in this forum
You cannot attach files in this forum
You cannot download files in this forum