Lady Gaga - Bad Romance (2009) Master | ProRes Jennifer Lopez - Waiting For Tonight (1999) 540p | Master | ProRes Ariana Grande The Weeknd - Love Me Harder (2014) Master | ProRes Lady Gaga - Poker Face (2009) Master | ProRes Lady Gaga - Paparazzi (2009) Master | ProRes Britney Spears - Hold It Against Me (2011) Master | ProRes INNA - J'Adore (2012) Master | ProRes Jennifer Lopez - I'm Into You ft. Lil Wayne (2011) Master | ProRes
  1. Longevity:
    4 years 9 months
    Posts:
    2411
    Gender:
    Male
    -Lady Gaga - Til It Happens To You (2015) Master | ProRes --Информация о Клипе
    Исполнитель: Lady Gaga
    Название: Til It Happens To You
    Год выхода: 2015
    Продолжительность: 00:05:33-Описание:
    Til It Happens to You - песня американской певицы Lady Gaga, вышедшая 18 сентября 2015 года и записанная для документального фильма The Hunting Ground (2015), посвященная теме сексуального насилия в студенческих кампусах. Авторами песни выступили сама Леди Гага и Дайан Уоррен. Песня получила положительные отзывы музыкальных критиков и была номинирована и на премию «Грэмми-2016» в категории Best Song Written for Visual Media и на премию Оскар-2016 в категории За лучшую песню к фильму.-Файл
    Кодек: APCH
    Контейнер: MOV
    Формат: ProRes
    Качество: Master
    Видео: 1920 x 1080 (1.778) | 23.976 fps | 108 Мбит/сек
    Аудио: PCM | 2304 Кбит/сек | 2.0 канала | 48.0 КГц | 24 бит

    MediaInfo

    Видео
    Идентификатор : 1
    Формат : ProRes
    Версия формата : Version 0
    Профиль формата : High
    Идентификатор кодека : apch
    Продолжительность : 5 м. 33 с.
    Вид битрейта : Переменный
    Битрейт : 108 Мбит/сек
    Ширина : 1920 пикселей
    Высота : 1080 пикселей
    Соотношение сторон : 16:9
    Режим частоты кадров : Постоянный
    Частота кадров : 23,976 кадра/сек
    Цветовое пространство : YUV
    Субдискретизация насыщенности : 4:2:2
    Тип развёртки : Прогрессивная
    Бит/(Пиксели*Кадры) : 2.168
    Размер потока : 4,19 Гбайт (98%)
    Библиотека кодирования : Apple
    Язык : English
    Дата кодирования : UTC 2015-09-17 02:54:55
    Дата пометки : UTC 2015-09-17 02:54:55
    Основные цвета : BT.709
    Характеристики трансфера : BT.709
    Коэффициенты матрицы : BT.709
    Аудио
    Идентификатор : 2
    Формат : PCM
    Параметр Endianness формата : Little
    Параметр Sign формата : Unsigned
    Идентификатор кодека : in24
    Продолжительность : 5 м. 33 с.
    Вид битрейта : Постоянный
    Битрейт : 2304 Кбит/сек
    Каналы : 2 канала
    Расположение каналов : Front: L R
    Частота : 48,0 КГц
    Битовая глубина : 24 бит
    Размер потока : 91,7 Мбайт (2%)
    Язык : English
    Дата кодирования : UTC 2015-09-17 02:54:55
    Дата пометки : UTC 2015-09-17 02:54:55
    Прочее
    Идентификатор : 3
    Тип : Time code
    Формат : QuickTime TC
    Продолжительность : 5 м. 33 с.
    Временной код первого кадра : 00:00:00:00
    TimeCode_Striped/String : Да
    Язык : English
    Дата кодирования : UTC 2015-09-17 02:54:55
    Дата пометки : UTC 2015-09-17 02:54:55

    Release was prepared by 60 - fps

  2. Longevity:
    3 years
    Posts:
    11
    Gender:
    Unknown
    Улыбаюсь Улыбаюсь Подмигиваю Подмигиваю
    15-Sep-2017 20:11 (after 6 hours)
  3. Longevity:
    3 years 8 months
    Posts:
    22
    Gender:
    Unknown
    Почему делают чёрно-белое видео,не интересное?
    16-Sep-2017 15:48 (after 19 hours)


You cannot post new topics in this forum
You cannot reply to topics in this forum
You cannot edit your posts in this forum
You cannot delete your posts in this forum
You cannot vote in polls in this forum
You cannot attach files in this forum
You cannot download files in this forum