Sheri Vi Tantalizes Nikolas With Her Oral Skills (2015) HD 1080p | 60 fps Leah Gotti-Wet Wild And Hot (2017) Full HD 1080p | 60 fps Honey Gold (2017) HD 720p | 60 fps Feeling Every Drop (2018) Ultra HD | 60 fps Sensual Dreaming (2016) HD 1080p | 60 fps Preppy Girl Threesome Get Three BBCs (2016) HD 1080p | 60 fps Lovers' Lane (2015) Full HD 1080p | 60 fps OVERCROTCHPARODY (2017) Full HD 1080p | 3D-Video | HSBS | 60 fps
  1. Longevity:
    2 years 11 months
    Posts:
    954
    Gender:
    Male
    Информация
    Название: Leah Gotti-Wet Wild And Hot-min
    Год выхода: 2017
    Жанр: Cumshot Hardcore Big Tits Brunette Big Ass Pornstar
    В ролях: Leah Gotti
    Продолжительность: 00:16:11
    -Описание:
    Cumshot Hardcore Leah Gotti Wilde Onlytease
    -Файл
    Кодек: MPEG4/ISO/AVC H.264
    Формат: MKV
    Качество: Full HD 1080p | 60 fps
    Видео: 1920 x 1080 (1.778) | 60.000 fps | 5.0 Мбит/сек
    Аудио: AAC | 2.0 | 48.0 kHz | 192 kbps | 16 bit

    MedifInfo

    Видео
    Идентификатор : 1
    Формат : AVC
    Формат/Информация : Advanced Video Codec
    Профиль формата : High@L4.1
    Параметр CABAC формата : Да
    Параметр ReFrames формата : 4 кадра
    Идентификатор кодека : V_MPEG4/ISO/AVC
    Продолжительность : 16 м. 11 с.
    Битрейт : 5000 Кбит/сек
    Ширина : 1920 пикселей
    Высота : 1080 пикселей
    Соотношение сторон : 16:9
    Режим частоты кадров : Постоянный
    Частота кадров : 60,000 кадров/сек
    Цветовое пространство : YUV
    Субдискретизация насыщенности : 4:2:0
    Битовая глубина : 8 бит
    Тип развёртки : Прогрессивная
    Бит/(Пиксели*Кадры) : 0.040
    Размер потока : 580 Мбайт (96%)
    Заголовок : Талямба: 60-fps.org
    Библиотека кодирования : x264 core 146 r2538 121396c
    Настройки программы : cabac=1 / ref=4 / deblock=1:-3:-3 / analyse=0x3:0x113 / me=umh / subme=8 / psy=1 / psy_rd=1.00:0.25 / mixed_ref=1 / me_range=32 / chroma_me=1 / trellis=1 / 8x8dct=1 / cqm=0 / deadzone=6,6 / fast_pskip=1 / chroma_qp_offset=-4 / threads=12 / lookahead_threads=2 / sliced_threads=0 / nr=0 / decimate=0 / interlaced=0 / bluray_compat=0 / constrained_intra=0 / bframes=3 / b_pyramid=2 / b_adapt=2 / b_bias=0 / direct=3 / weightb=1 / open_gop=0 / weightp=2 / keyint=599 / keyint_min=59 / scenecut=40 / intra_refresh=0 / rc_lookahead=50 / rc=2pass / mbtree=1 / bitrate=5000 / ratetol=1.0 / qcomp=0.80 / qpmin=0 / qpmax=69 / qpstep=4 / cplxblur=20.0 / qblur=0.5 / vbv_maxrate=50000 / vbv_bufsize=50000 / nal_hrd=none / filler=0 / ip_ratio=1.10 / aq=1:0.50
    Язык : English
    Default : Да
    Forced : Нет
    Аудио
    Идентификатор : 2
    Формат : AAC
    Формат/Информация : Advanced Audio Codec
    Профиль формата : LC
    Идентификатор кодека : A_AAC
    Продолжительность : 16 м. 11 с.
    Битрейт : 192 Кбит/сек
    Каналы : 2 канала
    Расположение каналов : Front: L R
    Частота : 44,1 КГц
    Частота кадров : 43,066 кадра/сек (1024 spf)
    Метод сжатия : С потерями
    Размер потока : 22,3 Мбайт (4%)
    Заголовок : Оригинал
    Язык : English
    Default : Да
    Forced : Нет

    Скриншоты

  2. Longevity:
    2 years 5 months
    Posts:
    21
    Gender:
    Male
    Супер, спасибо большое.
    19-Apr-2018 21:25 (after 1 day 19 hours)
  3. Longevity:
    2 years 11 months
    Posts:
    954
    Gender:
    Male
    9621Супер, спасибо большое.
    Всё для вас... !
    04-May-2018 02:39 (after 14 days)


You cannot post new topics in this forum
You cannot reply to topics in this forum
You cannot edit your posts in this forum
You cannot delete your posts in this forum
You cannot vote in polls in this forum
You cannot attach files in this forum
You cannot download files in this forum