Lady Gaga - Bad Romance (2009) Master | ProRes Jennifer Lopez - Waiting For Tonight (1999) 540p | Master | ProRes Ariana Grande The Weeknd - Love Me Harder (2014) Master | ProRes Lady Gaga - Poker Face (2009) Master | ProRes Lady Gaga - Paparazzi (2009) Master | ProRes Britney Spears - Hold It Against Me (2011) Master | ProRes INNA - J'Adore (2012) Master | ProRes Jennifer Lopez - I'm Into You ft. Lil Wayne (2011) Master | ProRes
  1. Longevity:
    4 years 9 months
    Posts:
    2411
    Gender:
    Male
    -Ленинград - Кольщик (2017) Master | ProRes --Информация о Клипе
    Исполнитель: Ленинград
    Название: Кольщик
    Год выхода: 2017
    Продолжительность: 00:04:18-Описание:
    «Ко́льщик» — песня группы «Ленинград». Исполняется коллективом с марта 2016 года, вышла синглом 14 февраля 2017 года; одновременно на YouTube был опубликован клип к песне, снятый Ильёй Найшуллером и к 16 февраля собравший более 3 миллионов просмотров. Клип стал лауреатом премии Berlin Music Video Awards в номинациях "Лучшее музыкальное видео года" и "Лучший концепт"; также видеоработа стала победителем лондонского фестиваля дизайна и рекламы D&AD.
    Клип снят с использованием обратной съёмки — все события показаны в обратном порядке. Прямые отсылки к географическому расположению отсутствуют; съёмка проходила в Тверском государственном цирке, а для видов снаружи использовано изображение Кишинёвского государственного цирка. Первые кадры демонстрируют выбегающих в панике из горящего здания людей, далее показана цепочка событий, которые привели к этому: попадание мыльного пузыря в глаз воздушной гимнастке, секс в комнате осветителя в непосредственной близости от важной аппаратуры, драка в VIP-ложе, разрушение стены цирка въехавшей в неё полицейской машиной, нападение вырвавшегося на свободу тигра на зрителей и так далее.
    Отвечая на вопрос журналиста издания «Коммерсантъ» о связи между песней и клипом, Илья Найшуллер отметил, что для него она есть. «Среди героинь клипа есть девушка, от лица которой могла бы быть рассказана эта история. Но я не скажу, кто это», — отметил режиссёр. Аналогично высказался по данному поводу и продюсер клипа Дмитрий Муравьёв. «У нашего клипа эта связь, конечно, есть, чуть по-другому поданная», — заявил он в интервью порталу TJournal.
    -Файл
    Кодек: APCH
    Контейнер: MOV
    Формат: ProRes
    Качество: Master
    Видео: 1888 x 1062 (1.778) | 25.000 fps | 77.6 Мбит/сек
    Аудио: PCM | 2304 Кбит/сек | 2.0 канала | 48.0 КГц | 24 бит

    MediaInfo

    Формат : MPEG-4
    Профиль формата : QuickTime
    Идентификатор кодека : qt
    Размер файла : 2,41 Гбайт
    Продолжительность : 4 м. 18 с.
    Режим общего битрейта : Переменный
    Общий поток : 79,9 Мбит/сек
    Дата кодирования : UTC 2017-02-14 22:21:08
    Дата пометки : UTC 2017-02-14 22:28:28
    Библиотека кодирования : Apple QuickTime
    Видео
    Идентификатор : 2
    Формат : ProRes
    Версия формата : Version 0
    Профиль формата : LT
    Идентификатор кодека : apcs
    Продолжительность : 4 м. 18 с.
    Вид битрейта : Переменный
    Битрейт : 77,6 Мбит/сек
    Ширина : 1888 пикселей
    Ширина оригинала : 1920 пикселей
    Высота : 1062 пикселя
    Высота оригинала : 1080 пикселей
    Соотношение сторон : 16:9
    Режим частоты кадров : Постоянный
    Частота кадров : 25,000 кадров/сек
    Цветовое пространство : YUV
    Субдискретизация насыщенности : 4:2:2
    Тип развёртки : Прогрессивная
    Бит/(Пиксели*Кадры) : 1.548
    Размер потока : 2,34 Гбайт (97%)
    Заголовок : Обработчик видео Apple / Обработчик псевдонимов Apple
    Библиотека кодирования : adv0
    Язык : English
    Дата кодирования : UTC 2017-02-14 22:21:08
    Дата пометки : UTC 2017-02-14 22:28:28
    Основные цвета : BT.709
    Характеристики трансфера : BT.709
    Коэффициенты матрицы : BT.709
    matrix_coefficients_Original : BT.709
    Аудио
    Идентификатор : 1
    Формат : PCM
    Параметр Endianness формата : Little
    Параметр Sign формата : Unsigned
    Идентификатор кодека : in24
    Продолжительность : 4 м. 18 с.
    Вид битрейта : Постоянный
    Битрейт : 2304 Кбит/сек
    Каналы : 2 канала
    Расположение каналов : Front: L R
    Частота : 48,0 КГц
    Битовая глубина : 24 бит
    Размер потока : 71,1 Мбайт (3%)
    Заголовок : Обработчик звука Apple / Обработчик псевдонимов Apple
    Язык : English
    Дата кодирования : UTC 2017-02-14 22:21:08
    Дата пометки : UTC 2017-02-14 22:28:28
    Прочее
    Идентификатор : 3
    Тип : Time code
    Формат : QuickTime TC
    Продолжительность : 4 м. 18 с.
    Временной код первого кадра : 00:00:01:23
    TimeCode_Striped/String : Да
    Заголовок

    Release was prepared by 60 - fps



    Last edited by Kryl on 2017-10-25 10:05; edited 1 time in total
  2. Longevity:
    1 year 9 months
    Posts:
    1
    Gender:
    Unknown
    Улыбаюсь
    19-Oct-2017 18:19 (after 10 hours)


You cannot post new topics in this forum
You cannot reply to topics in this forum
You cannot edit your posts in this forum
You cannot delete your posts in this forum
You cannot vote in polls in this forum
You cannot attach files in this forum
You cannot download files in this forum