Lady Gaga - Bad Romance (2009) Master | ProRes Jennifer Lopez - Waiting For Tonight (1999) 540p | Master | ProRes Ariana Grande The Weeknd - Love Me Harder (2014) Master | ProRes Lady Gaga - Poker Face (2009) Master | ProRes Lady Gaga - Paparazzi (2009) Master | ProRes Britney Spears - Hold It Against Me (2011) Master | ProRes INNA - J'Adore (2012) Master | ProRes Jennifer Lopez - I'm Into You ft. Lil Wayne (2011) Master | ProRes
  1. Longevity:
    4 years 9 months
    Posts:
    2411
    Gender:
    Male
    -Ленинград - Сиськи (2016) Master | ProRes -Информация о Клипе
    Исполнитель: Ленинград
    Название: Сиськи
    Год выхода: 2016
    Продолжительность: 00:05:37-Описание:
    Сергей Шнуров и группа «Ленинград» представили клип на новую песню «Сиськи». За день видео набрало 85 тысяч просмотров.
    По сюжету главная героиня обнаруживает в постели своего мужчины другую женщину, едва не убивает их ножницами и думает, что все ее беды из-за маленького размера груди.
    -Файл
    Кодек: APCH
    Контейнер: MOV
    Формат: ProRes
    Качество: Master
    Видео: 1920 x 1080 (1.778) | 25.000 fps | 78.5 Мбит/сек
    Аудио: PCM | 1536 Кбит/сек | 2.0 канала | 48.0 КГц | 16 бит

    MediaInfo

    Формат : MPEG-4
    Профиль формата : QuickTime
    Идентификатор кодека : qt
    Размер файла : 3,15 Гбайт
    Продолжительность : 5 м. 37 с.
    Режим общего битрейта : Переменный
    Общий поток : 80,0 Мбит/сек
    Дата кодирования : UTC 2016-09-08 20:02:10
    Дата пометки : UTC 2016-09-01 20:11:55
    Библиотека кодирования : aapl
    ©TIM : 00:00:00:00
    ©TSC : 25
    ©TSZ : 1
    Видео
    Идентификатор : 1
    Формат : ProRes
    Версия формата : Version 0
    Профиль формата : LT
    Идентификатор кодека : apcs
    Продолжительность : 5 м. 37 с.
    Вид битрейта : Переменный
    Битрейт : 78,5 Мбит/сек
    Ширина : 1920 пикселей
    Высота : 1080 пикселей
    Соотношение сторон : 16:9
    Режим частоты кадров : Постоянный
    Частота кадров : 25,000 кадров/сек
    Цветовое пространство : YUV
    Субдискретизация насыщенности : 4:2:2
    Тип развёртки : Прогрессивная
    Бит/(Пиксели*Кадры) : 1.513
    Размер потока : 3,09 Гбайт (98%)
    Библиотека кодирования : Apple
    Язык : English
    Дата кодирования : UTC 2016-09-08 20:02:10
    Дата пометки : UTC 2016-09-08 20:02:10
    Основные цвета : BT.709
    Характеристики трансфера : BT.709
    Коэффициенты матрицы : BT.709
    Аудио
    Идентификатор : 2
    Формат : PCM
    Параметр Endianness формата : Little
    Параметр Sign формата : Signed
    Идентификатор кодека : sowt
    Продолжительность : 5 м. 37 с.
    Вид битрейта : Постоянный
    Битрейт : 1536 Кбит/сек
    Каналы : 2 канала
    Расположение каналов : Front: L R
    Частота : 48,0 КГц
    Битовая глубина : 16 бит
    Размер потока : 61,9 Мбайт (2%)
    Язык : English
    Дата кодирования : UTC 2016-09-08 20:02:10
    Дата пометки : UTC 2016-09-08 20:02:10
    Прочее
    Идентификатор : 3
    Тип : Time code
    Формат : QuickTime TC
    Продолжительность : 5 м. 37 с.
    Временной код первого кадра : 00:00:00:00
    TimeCode_Striped/String : Да
    Язык : English
    Дата кодирования : UTC 2016-09-08 20:02:10
    Дата пометки : UTC 2016-09-08 20:02:10

    Release was prepared by 60 - fps



You cannot post new topics in this forum
You cannot reply to topics in this forum
You cannot edit your posts in this forum
You cannot delete your posts in this forum
You cannot vote in polls in this forum
You cannot attach files in this forum
You cannot download files in this forum