Несокрушимый (2018) BDRip 720p | 60 FPS Операция «Ы» и другие приключения Шурика (1965) BDRip-AVC | 60 fps Место встречи изменить нельзя (1979) DVDRip | 60 fps Завод (2018) BDRip 1080p | 60 fps Балканский рубеж (2019) BDRip 1080p | 60 fps Танки (2018) BDRip 1080p | 60 FPS Сволочи / Swine (2006) BDRip 1080p | 60fps Гоголь. Страшная месть (2018) BDRip 1080p | 60 FPS
  1. Longevity:
    4 years 9 months
    Posts:
    2411
    Gender:
    Male
    «Тайна дома Романовых» Информация
    Название: Матильда
    Год выхода: 2017
    Жанр: Драма, история
    Режиссер: Алексей Учитель
    Сценарий: Александр Александров
    Продюсер: Алексей Учитель, Александр Достман, Владимир Винокур
    В ролях: Михалина Ольшанска, Ларс Айдингер, Луиза Вольфрам, Данила Козловский, Ингеборга Дапкунайте, Сергей Гармаш, Евгений Миронов, Григорий Добрыгин, Галина Тюнина, Виталий Коваленко

    Сюжет:
    Последний русский император и балерина, утвердившая славу русского балета. Страсть, которая могла изменить русскую историю. Любовь, ставшая легендой. В жизни каждого человека случаются несколько дней, которые могут изменить её навсегда. Когда происходит самое главное. Ты оборачиваешься на голос любви. И делаешь выбор. Но если властитель империи полюбит танцовщицу, сводящую с ума своей красотой… Успенский собор, Кремль, Ходынское поле, царские дворцы, сцены Мариинского и Большого театров — там, где бьется сердце вечной России.

    Страна: Россия
    Продолжительность: 01:48:38

    Файл
    Кодек: H.264
    Формат: MKV
    Качество: BDRip 720p | 60 fps
    Видео: 1280 x 536 (2.388) | 60.000 fps | 10.0 Мбит/сек
    Аудио: AC3 | 5.1 | 48 kHz | 640 kbps | 16 bit

    MedifInfo

    Видео
    Идентификатор : 1
    Формат : AVC
    Формат/Информация : Advanced Video Codec
    Профиль формата : High@L4.1
    Параметр CABAC формата : Да
    Параметр ReFrames формата : 3 кадра
    Идентификатор кодека : V_MPEG4/ISO/AVC
    Продолжительность : 1 ч. 48 м.
    Вид битрейта : Переменный
    Битрейт : 9668 Кбит/сек
    Максимальный битрейт : 10000 Кбит/сек
    Ширина : 1280 пикселей
    Высота : 536 пикселей
    Соотношение сторон : 2,40:1
    Режим частоты кадров : Постоянный
    Частота кадров : 60,000 кадров/сек
    Стандарт вещания : PAL
    Цветовое пространство : YUV
    Субдискретизация насыщенности : 4:2:0
    Битовая глубина : 8 бит
    Тип развёртки : Прогрессивная
    Бит/(Пиксели*Кадры) : 0.235
    Размер потока : 7,34 Гбайт (92%)
    Заголовок : www.60-fps.org
    Язык : English
    Default : Да
    Forced : Нет
    Основные цвета : BT.601 NTSC
    Характеристики трансфера : BT.601
    Коэффициенты матрицы : BT.601
    colour_range : Limited
    Аудио
    Идентификатор : 2
    Формат : AC-3
    Формат/Информация : Audio Coding 3
    Расширение режима : CM (complete main)
    Параметр Endianness формата : Big
    Идентификатор кодека : A_AC3
    Продолжительность : 1 ч. 48 м.
    Вид битрейта : Постоянный
    Битрейт : 640 Кбит/сек
    Каналы : 6 каналов
    Расположение каналов : Front: L C R, Side: L R, LFE
    Частота : 48,0 КГц
    Битовая глубина : 16 бит
    Метод сжатия : С потерями
    Размер потока : 497 Мбайт (6%)
    Язык : Russian
    Default : Да
    Forced : Нет
    Меню
    00:00:00.000 : :Chapter 1
    00:00:56.500 : :Chapter 2
    00:11:23.291 : :Chapter 3
    00:24:02.833 : :Chapter 4
    00:39:26.000 : :Chapter 5
    00:50:44.166 : :Chapter 6
    01:03:31.500 : :Chapter 7
    01:17:48.208 : :Chapter 8
    01:31:13.875 : :Chapter 9

    Release was prepared by 60 - fps



You cannot post new topics in this forum
You cannot reply to topics in this forum
You cannot edit your posts in this forum
You cannot delete your posts in this forum
You cannot vote in polls in this forum
You cannot attach files in this forum
You cannot download files in this forum