Тайна Коко / Coco (2017) BDRip 1080p | 60 fps Фердинанд / Ferdinand (2017) BDRip 720p | 60 fps Тачки 3 / Cars 3 (2017) BDRip 720p | 60 fps Зверополис / Zootopia (2016) BDRip 1080p | 60 fps Тачки 3 / Cars 3 (2017) BDRip 1080p | 60 fps Три богатыря и принцесса Египта (2017) BDRip 720p | 60 fps Гадкий я 3 / Despicable Me 3 (2017) BDRip 720p | 60 fps Ральф / Wreck-It Ralph (2012) BDRip 720p | 60 fps
  1. Стаж:
    3 года 11 месяцев
    Сообщений:
    2412
    Пол:
    Мужской
    «Стоять до конца!»- Информация
    Название: Полный расколбас
    Оригинальное название: Sausage Party
    Год выхода: 2016
    Жанр: Мультфильм для взрослых, фэнтези, комедия, приключения, полнометражный
    Режиссер: Грег Тирнан, Конрад Вернон
    Сценарий: Сет Роген, Эван Голдберг, Кайл Хантер
    Продюсер: Дэвид Дистенфелд, Меган Эллисон, Пилар Флинн
    Персонажей озвучивали: Алистэр Эбелл, Айрис Апатоу, Стефани Бирд, Майкл Сера, Йен Джеймс Корлетт, Майкл Дэйнджерфилд, Брайан Добсон, Майкл Добсон, Джеймс Франко, Билл Хейдер
    --Сюжет:
    Первая анимационная комедия для взрослых о невероятных приключениях еды из супермаркета. Съедобным друзьям предстоит получить ответ на главный вопрос: есть ли жизнь за стенами супермаркета, и что же происходит с продуктами после того, как они попадают к людям домой?- Страна: США
    Продолжительность: 01:28:45

    Файл
    Кодек: MPEG4/ISO/AVC/H.264
    Формат: MKV
    Качество: BDRip 720p | 60 fps
    Видео: 1280 x 690 (1.855) | 59.940 fps | 10.0 Мбит/сек
    Аудио 1: AC3 | 5.1 | 48 kHz | 384 kbps | 16 bit | Дубляж - iTunes |
    Аудио 2: AC3 | 5.1 | 48 kHz | 640 kbps | 16 bit | ENG |
    Субтитры: Eng

    MedifInfo

    Видео
    Идентификатор : 1
    Формат : AVC
    Формат/Информация : Advanced Video Codec
    Профиль формата : High@L4.1
    Параметр CABAC формата : Да
    Параметр ReFrames формата : 3 кадра
    Параметр GOP формата : M=3, N=72
    Идентификатор кодека : V_MPEG4/ISO/AVC
    Продолжительность : 1 ч. 28 м.
    Вид битрейта : Переменный
    Битрейт : 9613 Кбит/сек
    Максимальный битрейт : 10000 Кбит/сек
    Ширина : 1280 пикселей
    Высота : 690 пикселей
    Соотношение сторон : 1,85:1
    Режим частоты кадров : Постоянный
    Частота кадров : 59,880 кадров/сек
    Частота кадров в оригинале : 59,940 кадров/сек
    Стандарт вещания : PAL
    Цветовое пространство : YUV
    Субдискретизация насыщенности : 4:2:0
    Битовая глубина : 8 бит
    Тип развёртки : Прогрессивная
    Бит/(Пиксели*Кадры) : 0.182
    Размер потока : 5,96 Гбайт (86%)
    Заголовок : www.60-fps.org
    Язык : English
    Default : Да
    Forced : Нет
    Основные цвета : BT.709
    Характеристики трансфера : BT.709
    Коэффициенты матрицы : BT.709
    colour_range : Limited
    Аудио #1
    Идентификатор : 2
    Формат : AC-3
    Формат/Информация : Audio Coding 3
    Расширение режима : CM (complete main)
    Параметр Endianness формата : Big
    Идентификатор кодека : A_AC3
    Продолжительность : 1 ч. 28 м.
    Вид битрейта : Постоянный
    Битрейт : 640 Кбит/сек
    Каналы : 6 каналов
    Расположение каналов : Front: L C R, Side: L R, LFE
    Частота : 48,0 КГц
    Битовая глубина : 16 бит
    Метод сжатия : С потерями
    Размер потока : 406 Мбайт (6%)
    Заголовок : Дубляж
    Язык : Russian
    Default : Да
    Forced : Нет
    Аудио #2
    Идентификатор : 3
    Формат : AC-3
    Формат/Информация : Audio Coding 3
    Расширение режима : CM (complete main)
    Параметр Endianness формата : Big
    Идентификатор кодека : A_AC3
    Продолжительность : 1 ч. 28 м.
    Вид битрейта : Постоянный
    Битрейт : 640 Кбит/сек
    Каналы : 6 каналов
    Расположение каналов : Front: L C R, Side: L R, LFE
    Частота : 48,0 КГц
    Битовая глубина : 16 бит
    Метод сжатия : С потерями
    Размер потока : 406 Мбайт (6%)
    Заголовок : Original
    Язык : English
    Default : Нет
    Forced : Нет
    Текст #1
    Идентификатор : 4
    Формат : UTF-8
    Идентификатор кодека : S_TEXT/UTF8
    Идентификатор кодека/Информация : UTF-8 Plain Text
    Заголовок : Forced
    Язык : Russian
    Default : Да
    Forced : Нет
    Текст #2
    Идентификатор : 5
    Формат : UTF-8
    Идентификатор кодека : S_TEXT/UTF8
    Идентификатор кодека/Информация : UTF-8 Plain Text
    Заголовок : Full
    Язык : Russian
    Default : Нет
    Forced : Нет
    Текст #3
    Идентификатор : 6
    Формат : UTF-8
    Идентификатор кодека : S_TEXT/UTF8
    Идентификатор кодека/Информация : UTF-8 Plain Text
    Заголовок : Full
    Язык : English
    Default : Нет
    Forced : Нет
    Меню
    00:00:00.000 : en:00:00:00.000
    00:04:24.264 : en:00:04:24.264
    00:10:19.118 : en:00:10:19.118
    00:15:27.844 : en:00:15:27.844
    00:19:32.171 : en:00:19:32.171
    00:24:53.701 : en:00:24:53.701
    00:29:32.938 : en:00:29:32.938
    00:35:44.142 : en:00:35:44.142
    00:41:55.263 : en:00:41:55.263
    00:48:18.521 : en:00:48:18.521
    00:54:45.908 : en:00:54:45.908
    00:59:54.508 : en:00:59:54.508
    01:03:47.073 : en:01:03:47.073
    01:08:01.286 : en:01:08:01.286
    01:11:55.811 : en:01:11:55.811
    01:16:03.809 : en:01:16:03.809

    Релиз подготовлен 60 - fps



    Последний раз редактировалось: Kryl (2016-11-15 21:01), всего редактировалось 7 раз(а)
  2. Стаж:
    2 года 1 месяц
    Сообщений:
    596
    Пол:
    Мужской
    Смеюсь жёсткий мульт,особенно перевод,РЖУНЕМОГУ... Смеюсь
    25-Окт-2016 22:47 (спустя 4 часа)
  3. Стаж:
    1 год 10 месяцев
    Сообщений:
    96
    Пол:
    Мужской
    А что сегодня изменилось в раздаче?
    15-Ноя-2016 21:21 (спустя 20 дней)
  4. Стаж:
    3 года 11 месяцев
    Сообщений:
    2412
    Пол:
    Мужской
    6863А что сегодня изменилось в раздаче?
    Ничего .
    Просто перенес в другой раздел , теперь доступно всем для скачивания . Улыбаюсь
    15-Ноя-2016 21:36 (спустя 14 минут)


Вы не можете начинать темы
Вы не можете отвечать на сообщения
Вы не можете редактировать свои сообщения
Вы не можете удалять свои сообщения
Вы не можете голосовать в опросах
Вы не можете прикреплять файлы к сообщениям
Вы не можете скачивать файлы