Несокрушимый (2018) BDRip 720p | 60 FPS Операция «Ы» и другие приключения Шурика (1965) BDRip-AVC | 60 fps Место встречи изменить нельзя (1979) DVDRip | 60 fps Завод (2018) BDRip 1080p | 60 fps Балканский рубеж (2019) BDRip 1080p | 60 fps Танки (2018) BDRip 1080p | 60 FPS Сволочи / Swine (2006) BDRip 1080p | 60fps Гоголь. Страшная месть (2018) BDRip 1080p | 60 FPS
  1. Longevity:
    2 years 10 months
    Posts:
    924
    Gender:
    Male
    Фильм «---» Фильм- Информация
    Название: Последний богатырь
    Оригинальное название: Последний богатырь
    Год выхода: 2017
    Жанр: комедия, семейный, фэнтези
    Режиссер: Дмитрий Дьяченко
    Сценарий: Виталий Шляппо, Василий Куценко, Димитрий Ян
    Продюсер: Марина Жигалова-Озкан, Эдуард Илоян, Виталий Шляппо
    В ролях: Виктор Хориняк,Мила Сивацкая,Екатерина Вилкова,Елена Яковлева,Константин Лавроненко,Евгений Дятлов,Александр Семчев,Сергей Бурунов,Александр Кухаренко,Марина Калецкая
    --Сюжет:
    Иван, обычный парень, по воле случая переносится из современной Москвы в фантастическую страну Белогорье. В этом параллельном мире живут герои русских сказок, волшебство — неотъемлемая часть быта, а спорные вопросы решаются битвой на богатырских мечах. Неожиданно Иван оказывается в самом центре борьбы светлых и темных сил, вот только непонятно, почему главная роль в происходящих событиях, по всеобщему мнению, уготована именно ему.-- Страна: Россия
    Продолжительность: 01:53:58

    Файл
    Кодек: MPEG4/ISO/AVC H.264/High@L4.1
    Формат: MKV
    Качество: BDRip 1080p | 60 fps
    Видео: 1920 x 800 (2.400) | 60,000 fps | 23,0 Мбит/сек
    Аудио 1: AC-3| 5.1 | 48 kHz | 448 Кбит/сек | 16 bit | Оригинал (Лицензия)
    Субтитры:

    MedifInfo

    Видео
    Идентификатор : 1
    Формат : AVC
    Формат/Информация : Advanced Video Codec
    Профиль формата : High@L4.1
    Параметр CABAC формата : Да
    Параметр ReFrames формата : 5 кадров
    Идентификатор кодека : V_MPEG4/ISO/AVC
    Продолжительность : 1 ч. 53 м.
    Битрейт : 23,0 Мбит/сек
    Ширина : 1920 пикселей
    Высота : 800 пикселей
    Соотношение сторон : 2,40:1
    Режим частоты кадров : Постоянный
    Частота кадров : 60,000 кадров/сек
    Цветовое пространство : YUV
    Субдискретизация насыщенности : 4:2:0
    Битовая глубина : 8 бит
    Тип развёртки : Прогрессивная
    Бит/(Пиксели*Кадры) : 0.250
    Размер потока : 18,2 Гбайт (98%)
    Заголовок : Талямба: 60-fps.org
    Библиотека кодирования : x264 core 146 r2538 121396c
    Настройки программы : cabac=1 / ref=5 / deblock=1:-3:-3 / analyse=0x3:0x113 / me=umh / subme=8 / psy=1 / psy_rd=1.00:0.25 / mixed_ref=1 / me_range=32 / chroma_me=1 / trellis=1 / 8x8dct=1 / cqm=0 / deadzone=6,6 / fast_pskip=1 / chroma_qp_offset=-4 / threads=12 / lookahead_threads=2 / sliced_threads=0 / nr=0 / decimate=0 / interlaced=0 / bluray_compat=0 / constrained_intra=0 / bframes=3 / b_pyramid=2 / b_adapt=2 / b_bias=0 / direct=3 / weightb=1 / open_gop=0 / weightp=2 / keyint=599 / keyint_min=59 / scenecut=40 / intra_refresh=0 / rc_lookahead=50 / rc=2pass / mbtree=1 / bitrate=23000 / ratetol=1.0 / qcomp=0.80 / qpmin=0 / qpmax=69 / qpstep=4 / cplxblur=20.0 / qblur=0.5 / vbv_maxrate=50000 / vbv_bufsize=50000 / nal_hrd=none / filler=0 / ip_ratio=1.10 / aq=1:0.50
    Язык : Russian
    Default : Да
    Forced : Нет
    Аудио
    Идентификатор : 2
    Формат : AC-3
    Формат/Информация : Audio Coding 3
    Расширение режима : CM (complete main)
    Параметр Endianness формата : Big
    Идентификатор кодека : A_AC3
    Продолжительность : 1 ч. 53 м.
    Вид битрейта : Постоянный
    Битрейт : 448 Кбит/сек
    Каналы : 6 каналов
    Расположение каналов : Front: L C R, Side: L R, LFE
    Частота : 48,0 КГц
    Частота кадров : 31,250 кадров/сек (1536 spf)
    Битовая глубина : 16 бит
    Метод сжатия : С потерями
    Размер потока : 365 Мбайт (2%)
    Заголовок : Оригинал
    Язык : Russian
    Default : Да
    Forced : Нет
    Текст #1
    Идентификатор : 3
    Формат : PGS
    Режим смешивания : zlib
    Идентификатор кодека : S_HDMV/PGS
    Идентификатор кодека/Информация : Picture based subtitle format used on BDs/HD-DVDs
    Продолжительность : 1 ч. 45 м.
    Битрейт : 6940 бит/сек
    Count of elements : 1767
    Размер потока : 5,23 Мбайт (0%)
    Язык : Russian
    Default : Да
    Forced : Нет
    Текст #2
    Идентификатор : 4
    Формат : PGS
    Режим смешивания : zlib
    Идентификатор кодека : S_HDMV/PGS
    Идентификатор кодека/Информация : Picture based subtitle format used on BDs/HD-DVDs
    Продолжительность : 1 ч. 45 м.
    Битрейт : 7975 бит/сек
    Count of elements : 2077
    Размер потока : 6,01 Мбайт (0%)
    Язык : English
    Default : Нет
    Forced : Нет
  2. Longevity:
    3 years 10 months
    Posts:
    25
    Gender:
    Male
    Смотрел в обычном качестве еще, этот фильм-сказка действительно очень хороший!!! Скачивайте не пожалеете 100%!!!
    22-Feb-2018 06:41 (after 6 hours)
  3. Longevity:
    6 months 5 days
    Posts:
    1
    Gender:
    Unknown
    не могу скачать.
    14-Jan-2019 15:38 (after 10 months 20 days)
  4. Longevity:
    2 years 10 months
    Posts:
    924
    Gender:
    Male
    10547не могу скачать.
    поправил,пробуйте качать... !
    14-Jan-2019 16:32 (after 53 minutes)


You cannot post new topics in this forum
You cannot reply to topics in this forum
You cannot edit your posts in this forum
You cannot delete your posts in this forum
You cannot vote in polls in this forum
You cannot attach files in this forum
You cannot download files in this forum