Человек-паук: Через вселенные / Spider-Man: Into the Spider-Verse (2018) BDRip 1080p | 60 fps Человек-паук: Через вселенные / Spider-Man: Into the Spider-Verse (2018) BDRip 720p | 60 fps Ральф против интернета / Ralph Breaks the Internet (2018) BDRip 1080p | 60 fps Как приручить дракона 3 / How to Train Your Dragon: The Hidden World (2019) BDRip 1080p | 60 fps Суперсемейка 2 / Incredibles 2 (2018) BDRip 1080p | 60 fps Тайная жизнь домашних животных / The Secret Life of Pets (2016) BDRip 1080p | 60 fps Как приручить дракона 3 / How to Train Your Dragon: The Hidden World (2019) BDRip 720p | 60 fps Смолфут / Smallfoot (2018) BDRip 720p | 60 fps
  1. Longevity:
    4 years 9 months
    Posts:
    2411
    Gender:
    Male
    «I won't just be a memory...»- Информация
    Название: Последняя Фантазия 7: Дети Пришествия
    Оригинальное название: FINAL FANTASY VII ADVENT CHILDREN
    Год выхода: 2009
    Жанр: Аниме, мультфильм, фантастика, фэнтези, боевик, триллер
    Режиссер: Тецуя Номура, Такэси Нодзуэ
    Сценарий: Казушиге Нодзима
    Продюсер: Синдзи Хашимото, Ёсинори Китасэ
    --Сюжет:
    Прошло два года с тех пор, как команда супербойцов под предводительством Клауда Страйфа спасла мир от кошмарного злодея Сефирота. Настал мир, и могучий Клауд удалился от дел, поселившись в сиротском приюте, чтобы среди детей забыть о кровавых битвах прошлого.
    Но покой герою только снится: жителей планеты начинает поражать странная болезнь-Геостигма, а в окрестностях появляется таинственный незнакомец по имени Кададж, явно замышляющий дурное. И его недобрые планы как-то связаны с беззащитными сиротами.
    - Страна: Япония
    Продолжительность: 02:06:26

    Файл
    Кодек: MPEG4/ISO/AVC/H.264
    Формат: MKV
    Качество: BDRip 720p | 60 fps
    Видео: 1280 x 720 (1.778) | 59.940 fps | 11.0 Мбит/сек
    Аудио 1: AC3 | 5.1 | 48 kHz | 448 kbps | 16 bit | Авторский одноголосый - Д. Строев |
    Аудио 2: AC3 | 5.1 | 48 kHz | 448 kbps | 16 bit | Английский |
    Аудио 3: AC3 | 5.1 | 48 kHz | 448 kbps | 16 bit | Японский |
    Субтитры: Русские

    MedifInfo

    Видео
    Идентификатор : 1
    Формат : AVC
    Формат/Информация : Advanced Video Codec
    Профиль формата : High@L4.1
    Параметр CABAC формата : Да
    Параметр ReFrames формата : 5 кадров
    Идентификатор кодека : V_MPEG4/ISO/AVC
    Продолжительность : 2 ч. 6 м.
    Битрейт : 11,0 Мбит/сек
    Ширина : 1280 пикселей
    Высота : 720 пикселей
    Соотношение сторон : 16:9
    Режим частоты кадров : Постоянный
    Частота кадров : 59,880 кадров/сек
    Частота кадров в оригинале : 59,940 кадров/сек
    Цветовое пространство : YUV
    Субдискретизация насыщенности : 4:2:0
    Битовая глубина : 8 бит
    Тип развёртки : Прогрессивная
    Бит/(Пиксели*Кадры) : 0.199
    Размер потока : 9,50 Гбайт (87%)
    Заголовок : www.60-fps.org
    Библиотека кодирования : x264 core 148 r2638 7599210
    Настройки программы : cabac=1 / ref=5 / deblock=1:-3:-3 / analyse=0x3:0x113 / me=umh / subme=8 / psy=1 / psy_rd=1.00:0.25 / mixed_ref=1 / me_range=32 / chroma_me=1 / trellis=1 / 8x8dct=1 / cqm=0 / deadzone=6,6 / fast_pskip=1 / chroma_qp_offset=-4 / threads=12 / lookahead_threads=2 / sliced_threads=0 / nr=0 / decimate=0 / interlaced=0 / bluray_compat=0 / constrained_intra=0 / bframes=3 / b_pyramid=2 / b_adapt=2 / b_bias=0 / direct=3 / weightb=1 / open_gop=0 / weightp=2 / keyint=599 / keyint_min=59 / scenecut=40 / intra_refresh=0 / rc_lookahead=50 / rc=2pass / mbtree=1 / bitrate=10999 / ratetol=1.0 / qcomp=0.80 / qpmin=0 / qpmax=69 / qpstep=4 / cplxblur=20.0 / qblur=0.5 / vbv_maxrate=62500 / vbv_bufsize=78125 / nal_hrd=none / filler=0 / ip_ratio=1.10 / aq=1:0.50
    Default : Да
    Forced : Нет
    Аудио #1
    Идентификатор : 2
    Формат : AC-3
    Формат/Информация : Audio Coding 3
    Расширение режима : CM (complete main)
    Параметр Endianness формата : Big
    Идентификатор кодека : A_AC3
    Продолжительность : 2 ч. 6 м.
    Вид битрейта : Постоянный
    Битрейт : 448 Кбит/сек
    Каналы : 6 каналов
    Расположение каналов : Front: L C R, Side: L R, LFE
    Частота : 48,0 КГц
    Битовая глубина : 16 бит
    Метод сжатия : С потерями
    Размер потока : 405 Мбайт (4%)
    Заголовок : Авторский одноголосый - Д. Строев
    Язык : Russian
    Default : Да
    Forced : Нет
    Аудио #2
    Идентификатор : 3
    Формат : AC-3
    Формат/Информация : Audio Coding 3
    Расширение режима : CM (complete main)
    Параметр Endianness формата : Big
    Идентификатор кодека : A_AC3
    Продолжительность : 2 ч. 6 м.
    Вид битрейта : Постоянный
    Битрейт : 448 Кбит/сек
    Каналы : 6 каналов
    Расположение каналов : Front: L C R, Side: L R, LFE
    Частота : 48,0 КГц
    Битовая глубина : 16 бит
    Метод сжатия : С потерями
    Размер потока : 405 Мбайт (4%)
    Заголовок : eng
    Язык : English
    Default : Нет
    Forced : Нет
    Аудио #3
    Идентификатор : 4
    Формат : AC-3
    Формат/Информация : Audio Coding 3
    Расширение режима : CM (complete main)
    Параметр Endianness формата : Big
    Идентификатор кодека : A_AC3
    Продолжительность : 2 ч. 6 м.
    Вид битрейта : Постоянный
    Битрейт : 448 Кбит/сек
    Каналы : 6 каналов
    Расположение каналов : Front: L C R, Side: L R, LFE
    Частота : 48,0 КГц
    Битовая глубина : 16 бит
    Метод сжатия : С потерями
    Размер потока : 405 Мбайт (4%)
    Заголовок : ipn
    Язык : Japanese
    Default : Нет
    Forced : Нет
    Текст
    Идентификатор : 5
    Формат : ASS
    Идентификатор кодека : S_TEXT/ASS
    Идентификатор кодека/Информация : Advanced Sub Station Alpha
    Метод сжатия : Без потерь
    Язык : Russian
    Default : Нет
    Forced : Нет
    Мультфильм сделан по заказу пользователя Licher

    Release was prepared by 60 - fps

  2. Longevity:
    2 years 8 months
    Posts:
    5
    Gender:
    Unknown
    88% STUCKKKKK
    23-Mar-2017 10:05 (after 1 month)
  3. Longevity:
    11 months 7 days
    Posts:
    1
    Gender:
    Unknown
    Только узнал про этот ресурс, очень люблю 60 ФПС и с удовольствием пересмотрю FF режиссерскую версию.
    12-Aug-2018 20:51 (after 1 year 4 months)
  4. Longevity:
    2 years 10 months
    Posts:
    924
    Gender:
    Male
    10093Только узнал про этот ресурс, очень люблю 60 ФПС и с удовольствием пересмотрю FF режиссерскую версию.
    Рады вас всегда видеть на сайте и ждём теперь вас в рядах VIP-пользователей... ! Кулачки
    12-Aug-2018 21:51 (after 1 hour)


You cannot post new topics in this forum
You cannot reply to topics in this forum
You cannot edit your posts in this forum
You cannot delete your posts in this forum
You cannot vote in polls in this forum
You cannot attach files in this forum
You cannot download files in this forum