Britney Spears - Toxic (2004) HDTVRip 1080p | 60 fps Dan Balan - Chica Bomb (2010) WEBRip 1080p | 60 fps Britney Spears - Oops! I Did It Again Uncut (2009) HD 1080p | 60 fps Bebe Rexha - I Got You (2017) WEBRip 1080p | 60 fps Luis Fonsi - Despacito ft. Daddy Yankee (2017) WEBRip 1080p | 60 fps Britney Spears - Lucky (2009) Full HD 1080p | 60 fps Spice Girls - Wannabe (1996) Full HD 1080p | 60 fps Evanescence - Synthesis Live (2018) BDRip 1080p | 60 fps
  1. Longevity:
    4 years 9 months
    Posts:
    2411
    Gender:
    Male
    -Rihanna - Kiss It Better (2016) Full HD 1080p | 60 fps -Информация о Клипе
    Исполнитель: Rihanna
    Название: Kiss It Better
    Год выхода: 2016
    Продолжительность: 00:04:08-Описание:
    Музыкальное видео на песню «Kiss It Better» было снято под руководством Британского фотографа Крейга МакДина. Премьера состоялась 30 марта 2016 года. Видео было снято за «одну очень длинную ночь». Тизер клипа был опубликован на день ранее, 29 марта 2016 года, на официальном Vevo-канале Рианны. Кили Гулд и Сиара Пардо стали продюсерами визуальной части. Для интервью изданию «The Fader» МакДин пояснил, что вдохновением для клипа послужили идеи, основанные на дадаизме и сюрреализме, «Всё это исходит от тебя как личности, твоих внутренних вдохновений, идей, которые ты держал в себе целую вечность».
    Редактор журнала «Billboard» Джесси Кэтз, описывает сюжет клипа, как «Показывает, как певица периодически поднимается, корчится на полу и плывёт в пространстве, при этом клип включает различные элементы раздевания, она поет под великолепный синтезатор и электрогитару. На самом деле, всё видео занимает только Рианна — и никого (ничего) на фоне нет вообще..». Элиза Томпсон (Cosmopolitan) описывает клип, как «В клипе Рианна раскинулась под легкой простыней. Игральные кубики скользят по ее телу. Она извивается на полу в прозрачном белье и танцует стриптиз в деловом костюме в стиле оверсайз.» Исходя из слов МакДина, идея с кубиками исходила от него и его творческого партнера Маши Васюковой: «Иногда процесс заключается в комбинации всех этих моментов, которые иначе не имели бы никакого смысла — подсознательные образы, сны… Игральные кости — графичный и сюрреалистический объект, вот и пришёлся кстати.»
    Натали Вайнер (из журнала «Billboard») считает, что видео на эту песню — одно из 11-ти лучших, когда-либо представленных Рианной, и описала его как «коммутационный шнур» для певицы, и также оно является доказательством того, что сексуальность, которую она излучает в клипе на свой сингл 2013-го года, Pour It Up", была только началом её пульсоучащающей силы (воздействия).
    Маккензи Вагонер (журнал «Vogue») пишет: «В любом случае, как бы ни оголялся её сосок, она умудряется выглядеть так, будто имеет на это право, а вовсе не вульгарной, — обращаясь к очевидной уверенности в своём теле, которая, особенно в свете прожекторов, может доставаться ценою больших усилий.» Кроме того, она назвала Рианну «эволюционным правило-нарушителем».
    За один день видео-клип на официальном Vevo-канале Рианны на YouTube набрал приблизительно 6 миллионов просмотров.
    -Файл
    Кодек: V_MPEG4/ISO/AVC
    Контейнер: MKV
    Формат: AVC
    Качество: Full HD 1080p | 60 fps
    Видео: 1920 x 1080 (1.778) | 59.940 fps | 30.0 Мбит/сек
    Аудио: DTS | 1413 Кбит/сек | 2.0 канала | 48.0 КГц | 16 бит

    MediaInfo

    Видео
    Идентификатор : 1
    Формат : AVC
    Формат/Информация : Advanced Video Codec
    Профиль формата : High@L4.1
    Параметр CABAC формата : Да
    Параметр ReFrames формата : 4 кадра
    Идентификатор кодека : V_MPEG4/ISO/AVC
    Продолжительность : 4 м. 8 с.
    Битрейт : 30,0 Мбит/сек
    Ширина : 1920 пикселей
    Высота : 1080 пикселей
    Соотношение сторон : 16:9
    Режим частоты кадров : Постоянный
    Частота кадров : 59,880 кадров/сек
    Частота кадров в оригинале : 59,940 кадров/сек
    Цветовое пространство : YUV
    Субдискретизация насыщенности : 4:2:0
    Битовая глубина : 8 бит
    Тип развёртки : Прогрессивная
    Бит/(Пиксели*Кадры) : 0.242
    Размер потока : 869 Мбайт (94%)
    Заголовок : www.60-fps.org
    Библиотека кодирования : x264 core 148 r2744 b97ae06
    Настройки программы : cabac=1 / ref=4 / deblock=1:-3:-3 / analyse=0x3:0x113 / me=umh / subme=8 / psy=1 / psy_rd=1.00:0.25 / mixed_ref=1 / me_range=32 / chroma_me=1 / trellis=1 / 8x8dct=1 / cqm=0 / deadzone=6,6 / fast_pskip=1 / chroma_qp_offset=-4 / threads=12 / lookahead_threads=2 / sliced_threads=0 / nr=0 / decimate=0 / interlaced=0 / bluray_compat=0 / constrained_intra=0 / bframes=3 / b_pyramid=2 / b_adapt=1 / b_bias=0 / direct=3 / weightb=1 / open_gop=0 / weightp=2 / keyint=599 / keyint_min=59 / scenecut=40 / intra_refresh=0 / rc_lookahead=50 / rc=2pass / mbtree=1 / bitrate=29999 / ratetol=1.0 / qcomp=0.80 / qpmin=0 / qpmax=69 / qpstep=4 / cplxblur=20.0 / qblur=0.5 / vbv_maxrate=62500 / vbv_bufsize=78125 / nal_hrd=none / filler=0 / ip_ratio=1.10 / aq=1:0.50
    Default : Да
    Forced : Нет
    Аудио
    Идентификатор : 2
    Формат : DTS
    Формат/Информация : Digital Theater Systems
    Режим : 16
    Параметр Endianness формата : Big
    Идентификатор кодека : A_DTS
    Продолжительность : 4 м. 8 с.
    Вид битрейта : Постоянный
    Битрейт : 1413 Кбит/сек
    Каналы : 2 канала
    Расположение каналов : Front: L R
    Частота : 48,0 КГц
    Битовая глубина : 16 бит
    Метод сжатия : С потерями
    Задержка видео : 83 мс.
    Размер потока : 41,8 Мбайт (5%)
    Язык : English
    Default : Да
    Forced : Нет
    DURATION : 00:04:08.214000000
    NUMBER_OF_FRAMES : 23270
    NUMBER_OF_BYTES : 43840680
    _STATISTICS_WRITING_APP : mkvmerge v7.6.0 ('Garden of Dreams') 32bit built on Feb 8 2015 12:51:39
    _STATISTICS_WRITING_DATE_UTC : 2017-10-03 14:51:38
    _STATISTICS_TAGS : BPS DURATION NUMBER_OF_FRAMES NUMBER_OF_BYTES

    Release was prepared by 60 - fps



You cannot post new topics in this forum
You cannot reply to topics in this forum
You cannot edit your posts in this forum
You cannot delete your posts in this forum
You cannot vote in polls in this forum
You cannot attach files in this forum
You cannot download files in this forum