Lady Gaga - Bad Romance (2009) Master | ProRes Jennifer Lopez - Waiting For Tonight (1999) 540p | Master | ProRes Ariana Grande The Weeknd - Love Me Harder (2014) Master | ProRes Lady Gaga - Poker Face (2009) Master | ProRes Lady Gaga - Paparazzi (2009) Master | ProRes Britney Spears - Hold It Against Me (2011) Master | ProRes INNA - J'Adore (2012) Master | ProRes Jennifer Lopez - I'm Into You ft. Lil Wayne (2011) Master | ProRes
  1. Longevity:
    4 years 9 months
    Posts:
    2411
    Gender:
    Male
    -Rihanna - Shut Up And Drive (2007) Master | ProRes --Информация о Клипе
    Исполнитель: Rihanna
    Название: Shut Up And Drive
    Год выхода: 2007
    Продолжительность: 00:05:07-Описание:
    «Shut Up and Drive» (рус. Заткнись и поехали) - второй сингл барбадосской певицы Рианны из её третьего студийного альбома Good Girl Gone Bad (2007), выпущенный 12 июня 2007 года.
    -Файл
    Кодек: APCH
    Контейнер: MOV
    Формат: ProRes
    Качество: Master
    Видео: 720 x 576 (1.334) | 25.000 fps | 40.4 Мбит/сек
    Аудио: PCM | 2304 Кбит/сек | 2.0 канала | 48.0 КГц | 16 бит

    MediaInfo

    Видео
    Идентификатор : 1
    Формат : ProRes
    Версия формата : Version 0
    Профиль формата : High
    Идентификатор кодека : apch
    Продолжительность : 5 м. 7 с.
    Вид битрейта : Переменный
    Битрейт : 40,4 Мбит/сек
    Ширина : 720 пикселей
    Высота : 576 пикселей
    Соотношение сторон : 4:3
    Режим частоты кадров : Постоянный
    Частота кадров : 25,000 кадров/сек
    Стандарт вещания : PAL
    Цветовое пространство : YUV
    Субдискретизация насыщенности : 4:2:2
    Тип развёртки : Прогрессивная
    Бит/(Пиксели*Кадры) : 3.901
    Размер потока : 1,45 Гбайт (95%)
    Библиотека кодирования : fmpg
    Язык : English
    Коэффициенты матрицы : BT.601
    Аудио
    Идентификатор : 2
    Формат : PCM
    Параметр Endianness формата : Little
    Параметр Sign формата : Unsigned
    Идентификатор кодека : in24
    Продолжительность : 4 м. 52 с.
    Вид битрейта : Постоянный
    Битрейт : 2304 Кбит/сек
    Каналы : 2 канала
    Расположение каналов : Front: L R
    Частота : 48,0 КГц
    Битовая глубина : 24 бит
    Размер потока : 80,4 Мбайт (5%)
    Язык : English

    Release was prepared by 60 - fps



    Last edited by Kryl on 2017-11-12 21:54; edited 1 time in total
  2. Longevity:
    2 years 8 months
    Posts:
    99
    Gender:
    Male
    В 60 fps будет?
    12-Nov-2017 21:33 (after 1 day 10 hours)
  3. Longevity:
    4 years 9 months
    Posts:
    2411
    Gender:
    Male
    8927В 60 fps будет?
    Нее... Качество не очень...
    12-Nov-2017 21:43 (after 10 minutes)


You cannot post new topics in this forum
You cannot reply to topics in this forum
You cannot edit your posts in this forum
You cannot delete your posts in this forum
You cannot vote in polls in this forum
You cannot attach files in this forum
You cannot download files in this forum