Тайна Коко / Coco (2017) BDRip 1080p | 60 fps Фердинанд / Ferdinand (2017) BDRip 720p | 60 fps Тачки 3 / Cars 3 (2017) BDRip 720p | 60 fps Зверополис / Zootopia (2016) BDRip 1080p | 60 fps Тачки 3 / Cars 3 (2017) BDRip 1080p | 60 fps Три богатыря и принцесса Египта (2017) BDRip 720p | 60 fps Гадкий я 3 / Despicable Me 3 (2017) BDRip 720p | 60 fps Ральф / Wreck-It Ralph (2012) BDRip 720p | 60 fps
  1. Стаж:
    2 года 1 месяц
    Сообщений:
    596
    Пол:
    Мужской
    Фильм «It's on in the Amazon» Фильм- Информация
    Название: Рио 2
    Оригинальное название: Rio 2
    Год выхода: 2014
    Жанр: мультфильм, мюзикл, комедия, приключения, семейный,
    Режиссер: Карлос Салдана
    Сценарий: Карлос Салдана, Дон Раймер, Карлос Коткин
    Продюсер: Брюс Андерсон, Джон С. Донкин, Крис Уэдж
    В ролях: Энн Хэтэуэй,Джесси Айзенберг,Рэйчел Кроу,Амандла Стенберг,Пирс Гэнон,Джемейн Клемент,Уилл Ай Эм,Джейми Фокс,Трэйси Морган,Джордж Лопес

    Сюжет:
    Голубчик, Жемчужинка и их трое детей живут счастливой жизнью в волшебном городе Рио-де-Жанейро. Когда Жемчужинка решает, что их детям нужно научиться жить как настоящим птицам, она настаивает на авантюрной поездке в дебри реки Амазонки. Там, пытаясь вписаться в новое окружение, Голубчик начинает беспокоиться, что может потерять Жемчужинку и детей, идущих на зов дикой природы.-- Страна: США
    Продолжительность: 01:41:11

    Файл
    Кодек: MPEG4/ISO/AVC H.264
    Формат: MKV
    Качество: BDRip-AVC 720p | 60 fps
    Видео: 1280 x 536 (2.388) | 59.940 fps | 4261 Кбит/сек
    Аудио 1: AC-3 | 5.1 | 48 kHz | 384 Кбит/сек| 16 bit | Дубляж (iTunes) |
    Аудио 2: AC-3 | 5.1 | 48 kHz | 448 Кбит/сек| 16 bit | Оригинал |
    Субтитры: Russian,English

    MedifInfo

    Видео
    Идентификатор : 1
    Формат : AVC
    Формат/Информация : Advanced Video Codec
    Профиль формата : High@L4.1
    Параметр CABAC формата : Да
    Параметр ReFrames формата : 9 кадров
    Идентификатор кодека : V_MPEG4/ISO/AVC
    Продолжительность : 1 ч. 41 м.
    Битрейт : 4261 Кбит/сек
    Ширина : 1280 пикселей
    Высота : 536 пикселей
    Соотношение сторон : 2,40:1
    Режим частоты кадров : Постоянный
    Частота кадров : 59,940 кадров/сек
    Цветовое пространство : YUV
    Субдискретизация насыщенности : 4:2:0
    Битовая глубина : 8 бит
    Тип развёртки : Прогрессивная
    Бит/(Пиксели*Кадры) : 0.104
    Размер потока : 3,01 Гбайт (82%)
    Библиотека кодирования : x264 core 130 r2273 b3065e6
    Настройки программы : cabac=1 / ref=9 / deblock=1:-1:-1 / analyse=0x3:0x133 / me=umh / subme=10 / psy=1 / psy_rd=1.00:0.10 / mixed_ref=1 / me_range=32 / chroma_me=1 / trellis=2 / 8x8dct=1 / cqm=0 / deadzone=21,11 / fast_pskip=0 / chroma_qp_offset=-3 / threads=12 / lookahead_threads=1 / sliced_threads=0 / nr=0 / decimate=1 / interlaced=0 / bluray_compat=0 / constrained_intra=0 / bframes=6 / b_pyramid=2 / b_adapt=2 / b_bias=0 / direct=1 / weightb=1 / open_gop=0 / weightp=2 / keyint=250 / keyint_min=25 / scenecut=40 / intra_refresh=0 / rc=crf / mbtree=0 / crf=19.0 / qcomp=0.60 / qpmin=0 / qpmax=69 / qpstep=4 / ip_ratio=1.40 / pb_ratio=1.30 / aq=2:1.00
    Язык : English
    Default : Да
    Forced : Нет
    Аудио #1
    Идентификатор : 2
    Формат : AC-3
    Формат/Информация : Audio Coding 3
    Расширение режима : CM (complete main)
    Параметр Endianness формата : Big
    Идентификатор кодека : A_AC3
    Продолжительность : 1 ч. 41 м.
    Вид битрейта : Постоянный
    Битрейт : 384 Кбит/сек
    Каналы : 6 каналов
    Расположение каналов : Front: L C R, Side: L R, LFE
    Частота : 48,0 КГц
    Частота кадров : 31,250 кадров/сек (1536 spf)
    Битовая глубина : 16 бит
    Метод сжатия : С потерями
    Размер потока : 278 Мбайт (7%)
    Заголовок : Dub (iTunes)
    Язык : Russian
    Default : Да
    Forced : Нет
    Аудио #2
    Идентификатор : 3
    Формат : AC-3
    Формат/Информация : Audio Coding 3
    Расширение режима : CM (complete main)
    Параметр Endianness формата : Big
    Идентификатор кодека : A_AC3
    Продолжительность : 1 ч. 41 м.
    Вид битрейта : Постоянный
    Битрейт : 448 Кбит/сек
    Каналы : 6 каналов
    Расположение каналов : Front: L C R, Side: L R, LFE
    Частота : 48,0 КГц
    Частота кадров : 31,250 кадров/сек (1536 spf)
    Битовая глубина : 16 бит
    Метод сжатия : С потерями
    Размер потока : 324 Мбайт (9%)
    Заголовок : Eng
    Язык : English
    Default : Нет
    Forced : Нет
    Текст #1
    Идентификатор : 4
    Формат : UTF-8
    Идентификатор кодека : S_TEXT/UTF8
    Идентификатор кодека/Информация : UTF-8 Plain Text
    Заголовок : full
    Язык : Russian
    Default : Нет
    Forced : Нет
    Текст #2
    Идентификатор : 5
    Формат : UTF-8
    Идентификатор кодека : S_TEXT/UTF8
    Идентификатор кодека/Информация : UTF-8 Plain Text
    Заголовок : full
    Язык : English
    Default : Нет
    Forced : Нет
    Меню
    00:00:00.000 : :Chapter 01
    00:03:10.815 : :Chapter 03
    00:05:14.313 : :Chapter 05
    00:08:49.362 : :Chapter 07
    00:13:02.239 : :Chapter 09
    00:17:36.305 : :Chapter 11
    00:19:19.408 : :Chapter 13
    00:22:30.348 : :Chapter 15
    00:26:48.690 : :Chapter 17
    00:29:00.155 : :Chapter 19
    00:30:59.691 : :Chapter 21
    00:33:46.566 : :Chapter 23
    00:36:34.191 : :Chapter 25
    00:39:20.232 : :Chapter 27
    00:41:32.656 : :Chapter 29
    00:45:05.119 : :Chapter 31
    00:47:23.090 : :Chapter 33
    00:49:58.161 : :Chapter 35
    00:52:05.455 : :Chapter 37
    00:55:38.918 : :Chapter 39
    00:58:10.904 : :Chapter 41
    01:02:11.394 : :Chapter 43
    01:04:38.082 : :Chapter 45
    01:07:03.936 : :Chapter 47
    01:09:18.195 : :Chapter 49
    01:10:21.342 : :Chapter 51
    01:15:17.763 : :Chapter 53
    01:17:00.157 : :Chapter 55
    01:21:41.855 : :Chapter 57
    01:25:24.619 : :Chapter 59
    01:29:42.710 : :Chapter 61
    01:32:27.959 : :Chapter 63
    01:41:10.981 : :Chapter 64


Вы не можете начинать темы
Вы не можете отвечать на сообщения
Вы не можете редактировать свои сообщения
Вы не можете удалять свои сообщения
Вы не можете голосовать в опросах
Вы не можете прикреплять файлы к сообщениям
Вы не можете скачивать файлы