Lady Gaga - Bad Romance (2009) Master | ProRes Jennifer Lopez - Waiting For Tonight (1999) 540p | Master | ProRes Ariana Grande The Weeknd - Love Me Harder (2014) Master | ProRes Lady Gaga - Poker Face (2009) Master | ProRes Lady Gaga - Paparazzi (2009) Master | ProRes Britney Spears - Hold It Against Me (2011) Master | ProRes INNA - J'Adore (2012) Master | ProRes Jennifer Lopez - I'm Into You ft. Lil Wayne (2011) Master | ProRes
  1. Longevity:
    4 years 9 months
    Posts:
    2411
    Gender:
    Male
    -Robin Schulz feat. James Blunt – OK (2017) Master | ProRes --Информация о Клипе
    Исполнитель: Robin Schulz feat. James Blunt
    Название: OK
    Год выхода: 2017
    Продолжительность: 00:03:36-Файл
    Кодек: APCH
    Контейнер: MOV
    Формат: ProRes
    Качество: Master
    Видео: 1920 x 1080 (1.778) | 25.000 fps | 176 Мбит/сек
    Аудио: PCM | 1536 Кбит/сек | 2.0 канала | 48.0 КГц | 16 бит

    MediaInfo

    Формат : MPEG-4
    Профиль формата : QuickTime
    Идентификатор кодека : qt
    Размер файла : 4,47 Гбайт
    Продолжительность : 3 м. 36 с.
    Режим общего битрейта : Переменный
    Общий поток : 178 Мбит/сек
    Дата кодирования : UTC 2017-05-18 22:23:01
    Дата пометки : UTC 2017-05-18 22:30:28
    Библиотека кодирования : Apple QuickTime
    ©TIM : 01:00:00:00
    ©TSC : 25
    ©TSZ : 1
    Видео
    Идентификатор : 1
    Формат : ProRes
    Версия формата : Version 0
    Профиль формата : High
    Идентификатор кодека : apch
    Продолжительность : 3 м. 36 с.
    Вид битрейта : Переменный
    Битрейт : 176 Мбит/сек
    Ширина : 1920 пикселей
    Высота : 1080 пикселей
    Соотношение сторон : 16:9
    Режим частоты кадров : Постоянный
    Частота кадров : 25,000 кадров/сек
    Цветовое пространство : YUV
    Субдискретизация насыщенности : 4:2:2
    Тип развёртки : Прогрессивная
    Бит/(Пиксели*Кадры) : 3.396
    Размер потока : 4,43 Гбайт (99%)
    Библиотека кодирования : Apple
    Язык : English
    Дата кодирования : UTC 2017-05-18 22:23:01
    Дата пометки : UTC 2017-05-18 22:23:01
    Основные цвета : BT.709
    Характеристики трансфера : BT.709
    Коэффициенты матрицы : BT.709
    Аудио
    Идентификатор : 2
    Формат : PCM
    Параметр Endianness формата : Little
    Параметр Sign формата : Signed
    Идентификатор кодека : sowt
    Продолжительность : 3 м. 36 с.
    Вид битрейта : Постоянный
    Битрейт : 1536 Кбит/сек
    Каналы : 2 канала
    Расположение каналов : Front: L R
    Частота : 48,0 КГц
    Битовая глубина : 16 бит
    Размер потока : 39,6 Мбайт (1%)
    Язык : English
    Дата кодирования : UTC 2017-05-18 22:23:01
    Дата пометки : UTC 2017-05-18 22:23:01
    Прочее
    Идентификатор : 3
    Тип : Time code
    Формат : QuickTime TC
    Продолжительность : 3 м. 36 с.
    Временной код первого кадра : 01:00:00:00
    TimeCode_Striped/String : Да
    Язык : English
    Дата кодирования : UTC 2017-05-18 22:23:01
    Дата пометки : UTC 2017-05-18 22:23:01

    Release was prepared by 60 - fps

  2. Longevity:
    3 years
    Posts:
    11
    Gender:
    Unknown
    Улыбаюсь Улыбаюсь Улыбаюсь
    06-Sep-2017 12:36 (after 50 minutes)


You cannot post new topics in this forum
You cannot reply to topics in this forum
You cannot edit your posts in this forum
You cannot delete your posts in this forum
You cannot vote in polls in this forum
You cannot attach files in this forum
You cannot download files in this forum