Lady Gaga - Bad Romance (2009) Master | ProRes Jennifer Lopez - Waiting For Tonight (1999) 540p | Master | ProRes Ariana Grande The Weeknd - Love Me Harder (2014) Master | ProRes Lady Gaga - Poker Face (2009) Master | ProRes Lady Gaga - Paparazzi (2009) Master | ProRes Britney Spears - Hold It Against Me (2011) Master | ProRes INNA - J'Adore (2012) Master | ProRes Jennifer Lopez - I'm Into You ft. Lil Wayne (2011) Master | ProRes
  1. Longevity:
    4 years 9 months
    Posts:
    2411
    Gender:
    Male
    -Selena Gomez - Same Old Love (2015) Master | ProRes --Информация о Клипе
    Исполнитель: Selena Gomez
    Название: Same Old Love
    Год выхода: 2015
    Продолжительность: 00:04:24-Описание:
    Same Old Love — песня, записанная американской певицей Селеной Гомес для её второго студийного альбома Revival. Композиция была написана Чарли Экс-Си-Экс, Россом Голаном, Бенни Бланко и командой Stargate, которые также выступили продюсерами композиции. Трек был представлен на саммите iHeartRadio в августе 2015 года и воспринят как потенциальный хит. Песня была выпущена 9 сентября 2015 года с открытием предзаказа альбома как второй сингл в его поддержку.
    -Файл
    Кодек: APCH
    Контейнер: MOV
    Формат: ProRes
    Качество: Master
    Видео: 1920 x 1080 (1.778) | 23.976 fps | 102 Мбит/сек
    Аудио: PCM | 2304 Кбит/сек | 2.0 канала | 48.0 КГц | 24 бит

    MediaInfo

    Формат : MPEG-4
    Профиль формата : QuickTime
    Идентификатор кодека : qt
    Размер файла : 3,22 Гбайт
    Продолжительность : 4 м. 24 с.
    Режим общего битрейта : Переменный
    Общий поток : 105 Мбит/сек
    Дата кодирования : UTC 2016-02-02 18:43:19
    Дата пометки : UTC 2016-02-01 18:45:39
    Библиотека кодирования : aapl
    ©TIM : 00:00:00:00
    ©TSC : 24000
    ©TSZ : 1001
    Видео
    Идентификатор : 1
    Формат : ProRes
    Версия формата : Version 0
    Идентификатор кодека : apcn
    Продолжительность : 4 м. 24 с.
    Вид битрейта : Переменный
    Битрейт : 102 Мбит/сек
    Ширина : 1920 пикселей
    Высота : 1080 пикселей
    Соотношение сторон : 16:9
    Режим частоты кадров : Постоянный
    Частота кадров : 23,976 кадра/сек
    Цветовое пространство : YUV
    Субдискретизация насыщенности : 4:2:2
    Тип развёртки : Прогрессивная
    Бит/(Пиксели*Кадры) : 2.059
    Размер потока : 3,15 Гбайт (98%)
    Библиотека кодирования : Apple
    Язык : English
    Дата кодирования : UTC 2016-02-02 18:43:19
    Дата пометки : UTC 2016-02-02 18:43:19
    Основные цвета : BT.709
    Характеристики трансфера : BT.709
    Коэффициенты матрицы : BT.709
    Аудио
    Идентификатор : 2
    Формат : PCM
    Параметр Endianness формата : Little
    Параметр Sign формата : Unsigned
    Идентификатор кодека : in24
    Продолжительность : 4 м. 24 с.
    Вид битрейта : Постоянный
    Битрейт : 2304 Кбит/сек
    Каналы : 2 канала
    Расположение каналов : Front: L R
    Частота : 48,0 КГц
    Битовая глубина : 24 бит
    Размер потока : 72,5 Мбайт (2%)
    Язык : English
    Дата кодирования : UTC 2016-02-02 18:43:19
    Дата пометки : UTC 2016-02-02 18:43:19
    Прочее
    Идентификатор : 3
    Тип : Time code
    Формат : QuickTime TC
    Продолжительность : 4 м. 24 с.
    Временной код первого кадра : 00:00:00:00
    TimeCode_Striped/String : Да
    Язык : English
    Дата кодирования : UTC 2016-02-02 18:43:19
    Дата пометки : UTC 2016-02-02 18:43:19

    Release was prepared by 60 - fps



You cannot post new topics in this forum
You cannot reply to topics in this forum
You cannot edit your posts in this forum
You cannot delete your posts in this forum
You cannot vote in polls in this forum
You cannot attach files in this forum
You cannot download files in this forum