Несокрушимый (2018) BDRip 720p | 60 FPS Операция «Ы» и другие приключения Шурика (1965) BDRip-AVC | 60 fps Место встречи изменить нельзя (1979) DVDRip | 60 fps Завод (2018) BDRip 1080p | 60 fps Балканский рубеж (2019) BDRip 1080p | 60 fps Танки (2018) BDRip 1080p | 60 FPS Сволочи / Swine (2006) BDRip 1080p | 60fps Гоголь. Страшная месть (2018) BDRip 1080p | 60 FPS
  1. Longevity:
    2 years 10 months
    Posts:
    924
    Gender:
    Male
    «Не в богах дело, в людях...»- Информация
    Название: Скиф
    Оригинальное название: Skif
    Год выхода: 2018
    Жанр: драма, история, фэнтези, боевик, приключения
    Режиссер: Рустам Мосафир
    Сценарий: Вадим Голованов, Рустам Мосафир
    Продюсер: Сергей Сельянов, Андрей Рыданов
    В ролях: Алексей Фаддеев,Александр Кузнецов,Виталий Кравченко,Александр Пацевич,Юрий Цурило,Андрей Пермяков,Василиса Измайлова,Алексей Овсянников,Фёдор Рощин,Рустам Мосафир
    --Сюжет:
    Действие фильма происходит во время смены цивилизаций. В Евразии начинается новая эра. Ушли в небытие гордые воины — скифы, их вымирающие потомки превратились в безжалостных наемных убийц, «волков Ареса». Ратнику Лютобору предстоит тяжелое испытание. Втянутый в междоусобные интриги он отправляется в опасный путь ради спасения семьи, а его проводником становится пленный скиф Куница. Они — враги и молятся разным богам, но вынуждены идти вместе. Через дикий степной мир к пристанищу последних скифов, где их ждет почти неминуемая смерть…- Страна: Россия
    Продолжительность: 01:44:32

    Файл
    Кодек: MPEG4/ISO/AVC/H.264
    Формат: MKV
    Качество: BDRip 1080p | 60 fps
    Видео: 1920 x 800 (2.400) | 59.940 fps | 30.0 Мбит/сек
    Аудио 1: DTS-HD MA| 5.1 | 48 kHz | 3840 Кбит/сек / 1509 Кбит/сек | 24 bit | Оригинал |
    Субтитры: НЕТ

    MedifInfo

    Видео
    Идентификатор : 1
    Формат : AVC
    Формат/Информация : Advanced Video Codec
    Профиль формата : High@L4.1
    Параметр CABAC формата : Да
    Параметр ReFrames формата : 4 кадра
    Идентификатор кодека : V_MPEG4/ISO/AVC
    Продолжительность : 1 ч. 44 м.
    Битрейт : 30,0 Мбит/сек
    Ширина : 1920 пикселей
    Высота : 800 пикселей
    Соотношение сторон : 2,40:1
    Режим частоты кадров : Постоянный
    Частота кадров : 59,940 (60000/1001) кадров/сек
    Цветовое пространство : YUV
    Субдискретизация насыщенности : 4:2:0
    Битовая глубина : 8 бит
    Тип развёртки : Прогрессивная
    Бит/(Пиксели*Кадры) : 0.326
    Размер потока : 21,9 Гбайт (89%)
    Заголовок : Талямба: 60-fps.org
    Библиотека кодирования : x264 core 146 r2538 121396c
    Настройки программы : cabac=1 / ref=3 / deblock=1:-3:-3 / analyse=0x3:0x113 / me=hex / subme=7 / psy=1 / psy_rd=1.00:0.25 / mixed_ref=1 / me_range=16 / chroma_me=1 / trellis=1 / 8x8dct=1 / cqm=0 / deadzone=6,6 / fast_pskip=1 / chroma_qp_offset=-4 / threads=12 / lookahead_threads=2 / sliced_threads=0 / nr=0 / decimate=0 / interlaced=0 / bluray_compat=0 / constrained_intra=0 / bframes=3 / b_pyramid=2 / b_adapt=1 / b_bias=0 / direct=1 / weightb=1 / open_gop=0 / weightp=2 / keyint=599 / keyint_min=59 / scenecut=40 / intra_refresh=0 / rc_lookahead=40 / rc=2pass / mbtree=1 / bitrate=30000 / ratetol=1.0 / qcomp=0.80 / qpmin=0 / qpmax=69 / qpstep=4 / cplxblur=20.0 / qblur=0.5 / vbv_maxrate=50000 / vbv_bufsize=50000 / nal_hrd=none / filler=0 / ip_ratio=1.10 / aq=1:0.50
    Язык : Russian
    Default : Да
    Forced : Нет
    Аудио
    Идентификатор : 2
    Формат : DTS
    Формат/Информация : Digital Theater Systems
    Профиль формата : MA / Core
    Режим : 16
    Параметр Endianness формата : Big
    Идентификатор кодека : A_DTS
    Продолжительность : 1 ч. 44 м.
    Вид битрейта : Переменный / Постоянный
    Битрейт : 3840 Кбит/сек / 1509 Кбит/сек
    Каналы : 6 каналов
    Расположение каналов : Front: L C R, Side: L R, LFE
    Частота : 48,0 КГц
    Частота кадров : 93,750 кадра/сек (512 spf)
    Битовая глубина : 24 бит
    Метод сжатия : Без потерь / Lossy
    Размер потока : 2,82 Гбайт (11%)
    Заголовок : Оригинал
    Язык : Russian
    Default : Да
    Forced : Нет
    Меню
    00:00:00.000 : ru:Chapter 1
    00:10:40.556 : ru:Chapter 2
    00:18:16.386 : ru:Chapter 3
    00:29:00.822 : ru:Chapter 4
    00:37:23.491 : ru:Chapter 5
    00:45:32.688 : ru:Chapter 6
    00:53:55.690 : ru:Chapter 7
    01:03:59.335 : ru:Chapter 8
    01:11:56.645 : ru:Chapter 9
    01:22:56.972 : ru:Chapter 10
    01:31:06.127 : ru:Chapter 11
    01:38:28.110 : ru:Chapter 12
    01:44:32.140 : ru:Chapter 13
  2. Longevity:
    1 year 2 months
    Posts:
    31
    Gender:
    Male
    Классный фильм, смотрите! Крови, конечно много, но в то время, на мечах, так и было. Релизёру огромное спасибо, качество всегда отличное!
    27-Jul-2018 16:18 (after 1 month 11 days)


You cannot post new topics in this forum
You cannot reply to topics in this forum
You cannot edit your posts in this forum
You cannot delete your posts in this forum
You cannot vote in polls in this forum
You cannot attach files in this forum
You cannot download files in this forum