Несокрушимый (2018) BDRip 720p | 60 FPS Балканский рубеж (2019) BDRip 1080p | 60 fps Операция «Ы» и другие приключения Шурика (1965) BDRip-AVC | 60 fps Завод (2018) BDRip 1080p | 60 fps Место встречи изменить нельзя (1979) DVDRip | 60 fps Домовой (2019) BDRip 1080p | 60 FPS Брат (1997) HDDVDRip 720p | 60fps Сволочи / Swine (2006) BDRip 1080p | 60fps
  1. Longevity:
    4 years 10 months
    Posts:
    2411
    Gender:
    Male
    Собака на сене (1977) DVDRip | 60 fps- Информация
    Название: Собака на сене
    Год выхода: 1977
    Жанр: Музыкальная комедия
    Режиссер: Ян Фрид
    Cценарий: Ян Фрид, Феликс Лопе де Вега, Михаил Лозинский
    Директор фильма: Григорий Прусовский
    В ролях: Маргарита Терехова, Михаил Боярский, Армен Джигарханян, Елена Проклова, Зинаида Шарко, Виктор Ильичев, Игорь Дмитриев, Николай Караченцов, Гелена Ивлиева, Алексей Кожевников
    --Сюжет:
    Богатая и знатная сеньора Диана терзается сомнениями: ей нужно выбрать между достойными ее руки женихами и личным секретарем — красавцем и ловеласом. А тот, в свою очередь, не может решить, кто ему больше по сердцу — его обворожительная хозяйка или ее прелестная служанка…- Страна: СССР
    Продолжительность: 02:08:43 (01:04:56+01:03:47 - 2 серии)

    Файл
    Кодек: MPEG4/ISO/AVC H.264
    Формат: MKV
    Качество: DVDRip | 60 fps
    Видео: 720 x 576 (1.250) | 60.000 fps | 5.0 Мбит/сек
    Аудио: AC-3 | 5.1 | 48 kHz | 448 kbps | 16 bit

    MediaInfo

    Видео
    Идентификатор : 1
    Формат : AVC
    Формат/Информация : Advanced Video Codec
    Профиль формата : High@L4.1
    Параметр CABAC формата : Да
    Параметр ReFrames формата : 5 кадров
    Идентификатор кодека : V_MPEG4/ISO/AVC
    Продолжительность : 1 ч. 4 м.
    Битрейт : 4999 Кбит/сек
    Ширина : 720 пикселей
    Высота : 576 пикселей
    Соотношение сторон : 5:4
    Режим частоты кадров : Постоянный
    Частота кадров : 60,000 кадров/сек
    Стандарт вещания : PAL
    Цветовое пространство : YUV
    Субдискретизация насыщенности : 4:2:0
    Битовая глубина : 8 бит
    Тип развёртки : Прогрессивная
    Бит/(Пиксели*Кадры) : 0.201
    Размер потока : 2,22 Гбайт (90%)
    Заголовок : www.60-fps.org
    Библиотека кодирования : x264 core 148 r2638 7599210
    Настройки программы : cabac=1 / ref=5 / deblock=1:-3:-3 / analyse=0x3:0x113 / me=umh / subme=8 / psy=1 / psy_rd=1.00:0.25 / mixed_ref=1 / me_range=32 / chroma_me=1 / trellis=1 / 8x8dct=1 / cqm=0 / deadzone=6,6 / fast_pskip=1 / chroma_qp_offset=-4 / threads=12 / lookahead_threads=2 / sliced_threads=0 / nr=0 / decimate=0 / interlaced=0 / bluray_compat=0 / constrained_intra=0 / bframes=3 / b_pyramid=2 / b_adapt=2 / b_bias=0 / direct=3 / weightb=1 / open_gop=0 / weightp=2 / keyint=600 / keyint_min=60 / scenecut=40 / intra_refresh=0 / rc_lookahead=50 / rc=2pass / mbtree=1 / bitrate=4999 / ratetol=1.0 / qcomp=0.80 / qpmin=0 / qpmax=69 / qpstep=4 / cplxblur=20.0 / qblur=0.5 / vbv_maxrate=62500 / vbv_bufsize=78125 / nal_hrd=none / filler=0 / ip_ratio=1.10 / aq=1:0.50
    Default : Да
    Forced : Нет
    Аудио
    Идентификатор : 2
    Формат : AC-3
    Формат/Информация : Audio Coding 3
    Расширение режима : CM (complete main)
    Параметр Endianness формата : Big
    Идентификатор кодека : A_AC3
    Продолжительность : 1 ч. 4 м.
    Вид битрейта : Постоянный
    Битрейт : 448 Кбит/сек
    Каналы : 2 канала
    Расположение каналов : Front: L R
    Частота : 48,0 КГц
    Битовая глубина : 16 бит
    Метод сжатия : С потерями
    Размер потока : 208 Мбайт (8%)
    Default : Да
    Forced : Нет
    DURATION : 01:04:56.160000000
    NUMBER_OF_FRAMES : 121756
    NUMBER_OF_BYTES : 218186752
    _STATISTICS_WRITING_APP : mkvmerge v7.6.0 ('Garden of Dreams') 32bit built on Feb 8 2015 12:51:39
    _STATISTICS_WRITING_DATE_UTC : 2017-01-18 06:03:08
    _STATISTICS_TAGS : BPS DURATION NUMBER_OF_FRAMES NUMBER_OF_BYTES

    Release was prepared by 60 - fps

  2. Longevity:
    3 years 9 months
    Posts:
    22
    Gender:
    Unknown
    Надеюсь фильм реставрируют?
    20-Jan-2017 19:01 (after 2 days 9 hours)
  3. Longevity:
    4 years 10 months
    Posts:
    2411
    Gender:
    Male
    7272Надеюсь фильм реставрируют?
    Так его уже реставрировали . Это рип с реставрированной версии .
    20-Jan-2017 19:22 (after 20 minutes)
  4. Longevity:
    2 years 2 months
    Posts:
    7
    Gender:
    Unknown
    Встаньте на раздачу, пожалуйста!
    21-May-2017 19:10 (after 4 months)


You cannot post new topics in this forum
You cannot reply to topics in this forum
You cannot edit your posts in this forum
You cannot delete your posts in this forum
You cannot vote in polls in this forum
You cannot attach files in this forum
You cannot download files in this forum