Несокрушимый (2018) BDRip 720p | 60 FPS Балканский рубеж (2019) BDRip 1080p | 60 fps Операция «Ы» и другие приключения Шурика (1965) BDRip-AVC | 60 fps Завод (2018) BDRip 1080p | 60 fps Место встречи изменить нельзя (1979) DVDRip | 60 fps Домовой (2019) BDRip 1080p | 60 FPS Брат (1997) HDDVDRip 720p | 60fps Сволочи / Swine (2006) BDRip 1080p | 60fps
  1. Longevity:
    4 years 10 months
    Posts:
    2411
    Gender:
    Male
    Соломенная шляпка (1974) DVDRip | 60 fps- Информация о фильме
    Название: Соломенная шляпка
    Год выхода: 1974
    Жанр: мюзикл, комедия
    Режиссер: Леонид Квинихидзе
    Сценарий: Леонид Квинихидзе, Эжен Лабиш
    В ролях: Андрей Миронов, Екатерина Васильева, Людмила Гурченко, Владислав Стржельчик, Зиновий Гердт, Алиса Фрейндлих, Игорь Кваша и другие.
    --О фильме:
    Герой фильма вынужден жениться, так как у него полно долгов, а 24 франка в день составляют 8000 с лишним франков в год одной только ренты, и к тому же на браке настаивает отец невесты, но в дело вмешивается лошадь, предпочитающая итальянскую соломку.- Страна: СССР
    Продолжительность: 02:07:12 ( 01:03:30 + 01:03:42)
    -- Файл
    Кодек: MPEG4/ISO/AVC H.264
    Формат: MKV
    Качество: DVDRip | 60 fps
    Видео: 720 x 576 (1.250) | 60.000 fps | 3.0 Мбит/сек
    Аудио: AC-3 | 5.1 | 48 kHz | 448 Кбит/сек | 16 bit |

    MedifInfo

    Видео
    Идентификатор : 1
    Формат : AVC
    Формат/Информация : Advanced Video Codec
    Профиль формата : High@L4.1
    Параметр CABAC формата : Да
    Параметр ReFrames формата : 8 кадров
    Идентификатор кодека : V_MPEG4/ISO/AVC
    Продолжительность : 1 ч. 3 м.
    Битрейт : 2999 Кбит/сек
    Ширина : 720 пикселей
    Высота : 576 пикселей
    Соотношение сторон : 5:4
    Режим частоты кадров : Постоянный
    Частота кадров : 60,000 кадров/сек
    Стандарт вещания : PAL
    Цветовое пространство : YUV
    Субдискретизация насыщенности : 4:2:0
    Битовая глубина : 8 бит
    Тип развёртки : Прогрессивная
    Бит/(Пиксели*Кадры) : 0.121
    Размер потока : 1,31 Гбайт (85%)
    Заголовок : www.60-fps.org
    Библиотека кодирования : x264 core 148 r2638 7599210
    Настройки программы : cabac=1 / ref=8 / deblock=1:-3:-3 / analyse=0x3:0x133 / me=esa / subme=9 / psy=1 / psy_rd=1.00:0.25 / mixed_ref=1 / me_range=32 / chroma_me=1 / trellis=2 / 8x8dct=1 / cqm=0 / deadzone=6,6 / fast_pskip=1 / chroma_qp_offset=-4 / threads=12 / lookahead_threads=1 / sliced_threads=0 / nr=0 / decimate=0 / interlaced=0 / bluray_compat=0 / constrained_intra=0 / bframes=3 / b_pyramid=2 / b_adapt=2 / b_bias=0 / direct=3 / weightb=1 / open_gop=0 / weightp=2 / keyint=600 / keyint_min=60 / scenecut=40 / intra_refresh=0 / rc_lookahead=60 / rc=2pass / mbtree=1 / bitrate=2999 / ratetol=1.0 / qcomp=0.80 / qpmin=0 / qpmax=69 / qpstep=4 / cplxblur=20.0 / qblur=0.5 / vbv_maxrate=62500 / vbv_bufsize=78125 / nal_hrd=none / filler=0 / ip_ratio=1.10 / aq=1:0.50
    Default : Да
    Forced : Нет
    Аудио
    Идентификатор : 2
    Формат : AC-3
    Формат/Информация : Audio Coding 3
    Расширение режима : CM (complete main)
    Параметр Endianness формата : Big
    Идентификатор кодека : A_AC3
    Продолжительность : 1 ч. 3 м.
    Вид битрейта : Постоянный
    Битрейт : 448 Кбит/сек
    Каналы : 6 каналов
    Расположение каналов : Front: L C R, Side: L R, LFE
    Частота : 48,0 КГц
    Битовая глубина : 16 бит
    Метод сжатия : С потерями
    Размер потока : 204 Мбайт (13%)
    Заголовок : AC3
    Default : Да
    Forced : Нет

    Release was prepared by 60 - fps

  2. Longevity:
    3 years 9 months
    Posts:
    22
    Gender:
    Unknown
    Спасибо и старые фильмы нравятся,особенно по сравнению с новыми!
    20-Mar-2016 14:08 (after 8 minutes)
  3. Longevity:
    3 years 5 months
    Posts:
    1
    Gender:
    Unknown
    Спасибо ! Отечественные всегда смотрятся с удовольствием !
    22-Mar-2016 19:33 (after 2 days 5 hours)
  4. Longevity:
    2 years 2 months
    Posts:
    7
    Gender:
    Unknown
    Встаньте на раздачу, пжлст!
    21-May-2017 19:08 (after 1 year 1 month)


You cannot post new topics in this forum
You cannot reply to topics in this forum
You cannot edit your posts in this forum
You cannot delete your posts in this forum
You cannot vote in polls in this forum
You cannot attach files in this forum
You cannot download files in this forum