Lady Gaga - Bad Romance (2009) Master | ProRes Jennifer Lopez - Waiting For Tonight (1999) 540p | Master | ProRes Ariana Grande The Weeknd - Love Me Harder (2014) Master | ProRes Lady Gaga - Poker Face (2009) Master | ProRes Lady Gaga - Paparazzi (2009) Master | ProRes Britney Spears - Hold It Against Me (2011) Master | ProRes INNA - J'Adore (2012) Master | ProRes Jennifer Lopez - I'm Into You ft. Lil Wayne (2011) Master | ProRes
  1. Longevity:
    4 years 9 months
    Posts:
    2411
    Gender:
    Male
    -The Weeknd - Starboy ft. Daft Punk (2016) Master | ProRes -Информация о Клипе
    Исполнитель: The Weeknd
    Название: Starboy ft. Daft Punk
    Год выхода: 2016
    Продолжительность: 00:04:38-Описание:
    «Starboy» была выпущена вслед за анонсом альбома, который, наряду с обложкой альбома, был презентован днём ранее. С точки зрения текстового наполнения включает в себя темы экстравагантности, связанной с образом жизни знаменитостей, как и обсуждение того, как таковой образ жизни может сделать артиста уязвимым.-Файл
    Кодек: APCH
    Контейнер: MOV
    Формат: ProRes
    Качество: Master
    Видео: 1920 x 1080 (1.778) | 23.976 fps | 169 Мбит/сек
    Аудио: PCM | 1411,2 Кбит/сек | 2.0 канала | 44.1 КГц | 16 бит

    MediaInfo

    Профиль формата : QuickTime
    Идентификатор кодека : qt
    Размер файла : 5,53 Гбайт
    Продолжительность : 4 м. 38 с.
    Режим общего битрейта : Переменный
    Общий поток : 171 Мбит/сек
    Дата кодирования : UTC 2016-12-17 10:06:46
    Дата пометки : UTC 2016-12-17 10:07:15
    Библиотека кодирования : Apple QuickTime 7.7.6
    Видео
    Идентификатор : 1
    Формат : ProRes
    Версия формата : Version 0
    Профиль формата : High
    Идентификатор кодека : apch
    Продолжительность : 4 м. 38 с.
    Вид битрейта : Переменный
    Битрейт : 169 Мбит/сек
    Ширина : 1920 пикселей
    Высота : 1080 пикселей
    Соотношение сторон : 16:9
    Режим частоты кадров : Постоянный
    Частота кадров : 23,976 кадра/сек
    Цветовое пространство : YUV
    Субдискретизация насыщенности : 4:2:2
    Тип развёртки : Прогрессивная
    Бит/(Пиксели*Кадры) : 3.401
    Размер потока : 5,49 Гбайт (99%)
    Библиотека кодирования : arh0
    Язык : English
    Дата кодирования : UTC 2016-09-29 20:25:53
    Дата пометки : UTC 2016-12-17 10:07:15
    Основные цвета : BT.709
    Характеристики трансфера : BT.709
    Коэффициенты матрицы : BT.709
    matrix_coefficients_Original : BT.709
    Аудио
    Идентификатор : 8
    Формат : PCM
    Параметр Endianness формата : Little
    Параметр Sign формата : Signed
    Идентификатор кодека : sowt
    Продолжительность : 4 м. 38 с.
    Вид битрейта : Постоянный
    Битрейт : 1411,2 Кбит/сек
    Каналы : 2 канала
    Расположение каналов : Front: L R
    Частота : 44,1 КГц
    Битовая глубина : 16 бит
    Размер потока : 46,9 Мбайт (1%)
    Язык : English
    Дата кодирования : UTC 2016-12-17 10:02:09
    Дата пометки : UTC 2016-12-17 10:07:15

    Release was prepared by 60 - fps



You cannot post new topics in this forum
You cannot reply to topics in this forum
You cannot edit your posts in this forum
You cannot delete your posts in this forum
You cannot vote in polls in this forum
You cannot attach files in this forum
You cannot download files in this forum