VIP

Чёрная Пантера / Black Panther (2018) BDRip 1080p | 60 fps Тор: Рагнарёк / Thor: Ragnarok (2017) BDRip 1080p | 60 fps Мстители: Эра Альтрона / Avengers: Age of Ultron (2015) BDRip 1080p | 60 fps Стражи Галактики. Часть 2 / Guardians of the Galaxy Vol. 2 (2017) BDRip 1080p | 60 fps Доктор Стрэндж / Doctor Strange (2016) BDRip 1080p | 60 fps Чёрная Пантера / Black Panther (2018) BDRip 720p | 60 fps Первый мститель: Противостояние / Captain America: Civil War (2016) BDRip 1080p | 60 fps Мстители / The Avengers (2012) BDRip 720p | 60 fps
  1. Стаж:
    4 года 2 месяца
    Сообщений:
    2433
    Пол:
    Мужской
    «No Hammer. No Problem» Информация
    Название: Тор: Рагнарёк
    Оригинальное название: Thor: Ragnarok
    Год выхода: 2017
    Жанр: Фантастика, боевик, комедия, приключения
    Режиссер: Тайка Вайтити
    Сценарий: Эрик Пирсон, Крэйг Кайл
    Продюсер: Виктория Алонсо, Брайан Чапек
    В ролях: Крис Хемсворт, Том Хиддлстон, Кейт Бланшетт, Идрис Эльба, Джефф Голдблюм, Тесса Томпсон, Карл Урбан, Марк Руффало, Энтони Хопкинс, Бенедикт Камбербэтч

    Сюжет:
    После принуждения к миру Альтрона и установления демократии в Соковии Тор отправляется в дальний вояж по Вселенной на поиски Камней Бесконечности. Вдоволь повеселившись и отыскав только лишь приключения на свой молот, бог грома возвращается в Асгард. Там он застает результаты эффективного правления своего брата Локи, который не только вероломно захватил трон, но и ударными темпами приближает конец света. Тем временем, из вечного заточения вырывается богиня смерти - Хела, много лет назад низвергнутая туда Одином за перегибы на местах. Она тут же начинает нехорошо нагнетать обстановку, тлетворно на всех влиять и лить воду на мельницу врагов асгардского народа. И теперь истинный правитель Асгарда должен овладеть внутренним источником силы, объединиться со старым другом с прежней работы и покончить с анархо-кулацким развратом в девяти мирах.

    Страна: США
    Продолжительность: 02:10:31

    Файл
    Кодек: H.264
    Формат: MKV
    Качество: BDRip 720p | 60 fps
    Видео: 1280 x 536 (2.388) | 59.940 fps | 12.0 Мбит/сек
    Аудио 01: AC3 | 5.1 | 48 kHz | 384 kbps | 16 bit | Дубляж - iTunes |
    Аудио 02: AC3 | 5.1 | 48 kHz | 448 kbps | 16 bit | english |
    Субтитры: Русские (форсированные, полные), английские

    MedifInfo

    Видео
    Идентификатор : 1
    Формат : AVC
    Формат/Информация : Advanced Video Codec
    Профиль формата : High@L4.1
    Параметр CABAC формата : Да
    Параметр ReFrames формата : 3 кадра
    Идентификатор кодека : V_MPEG4/ISO/AVC
    Продолжительность : 2 ч. 10 м.
    Вид битрейта : Переменный
    Битрейт : 11,6 Мбит/сек
    Максимальный битрейт : 12,0 Мбит/сек
    Ширина : 1280 пикселей
    Высота : 536 пикселей
    Соотношение сторон : 2,40:1
    Режим частоты кадров : Постоянный
    Частота кадров : 59,880 кадров/сек
    Частота кадров в оригинале : 59,940 кадров/сек
    Стандарт вещания : PAL
    Цветовое пространство : YUV
    Субдискретизация насыщенности : 4:2:0
    Битовая глубина : 8 бит
    Тип развёртки : Прогрессивная
    Бит/(Пиксели*Кадры) : 0.282
    Размер потока : 10,5 Гбайт (91%)
    Заголовок : www.60-fps.org
    Язык : English
    Default : Да
    Forced : Нет
    Основные цвета : BT.601 NTSC
    Характеристики трансфера : BT.601
    Коэффициенты матрицы : BT.601
    colour_range : Limited
    Аудио #1
    Идентификатор : 2
    Формат : AC-3
    Формат/Информация : Audio Coding 3
    Расширение режима : CM (complete main)
    Параметр Endianness формата : Big
    Идентификатор кодека : A_AC3
    Продолжительность : 2 ч. 10 м.
    Вид битрейта : Постоянный
    Битрейт : 384 Кбит/сек
    Каналы : 6 каналов
    Расположение каналов : Front: L C R, Side: L R, LFE
    Частота : 48,0 КГц
    Битовая глубина : 16 бит
    Метод сжатия : С потерями
    Размер потока : 358 Мбайт (3%)
    Заголовок : Дубляж - iTunes
    Язык : Russian
    Default : Да
    Forced : Нет
    Аудио #2
    Идентификатор : 3
    Формат : AC-3
    Формат/Информация : Audio Coding 3
    Расширение режима : CM (complete main)
    Параметр Endianness формата : Big
    Идентификатор кодека : A_AC3
    Продолжительность : 2 ч. 10 м.
    Вид битрейта : Постоянный
    Битрейт : 448 Кбит/сек
    Каналы : 6 каналов
    Расположение каналов : Front: L C R, Side: L R, LFE
    Частота : 48,0 КГц
    Битовая глубина : 16 бит
    Метод сжатия : С потерями
    Размер потока : 418 Мбайт (4%)
    Заголовок : english
    Язык : English
    Default : Нет
    Forced : Нет
    Текст #1
    Идентификатор : 4
    Формат : UTF-8
    Идентификатор кодека : S_TEXT/UTF8
    Идентификатор кодека/Информация : UTF-8 Plain Text
    Заголовок : Full
    Язык : Russian
    Default : Нет
    Forced : Нет
    Текст #2
    Идентификатор : 5
    Формат : UTF-8
    Идентификатор кодека : S_TEXT/UTF8
    Идентификатор кодека/Информация : UTF-8 Plain Text
    Заголовок : Full
    Язык : Russian
    Default : Нет
    Forced : Нет
    Текст #3
    Идентификатор : 6
    Формат : UTF-8
    Идентификатор кодека : S_TEXT/UTF8
    Идентификатор кодека/Информация : UTF-8 Plain Text
    Заголовок : Full
    Язык : English
    Default : Нет
    Forced : Нет
    Текст #4
    Идентификатор : 7
    Формат : UTF-8
    Идентификатор кодека : S_TEXT/UTF8
    Идентификатор кодека/Информация : UTF-8 Plain Text
    Заголовок : Forced
    Язык : Russian
    Default : Да
    Forced : Да
    Меню
    00:00:00.000 : en:The Great Prophecy
    00:06:20.672 : en:The Tragedy Of Loki Of Asgard
    00:14:11.642 : en:A Worthy Inclusion
    00:22:12.873 : en:The Goddess Of Death
    00:26:43.060 : en:"Are You A Fighter, Or Are You Food?"
    00:31:29.721 : en:Heiress Apparent
    00:35:03.935 : en:The Grandmaster
    00:42:49.734 : en:The Eternal Flame
    00:48:31.534 : en:The Contest Of Champions
    00:59:38.784 : en:The Resistance
    01:07:57.907 : en:Hotheaded Fools
    01:17:30.604 : en:The Revengers
    01:27:25.323 : en:"The Revolution Has Begun"
    01:36:08.721 : en:Ready For War
    01:42:35.733 : en:"Asgard Is Not A Place"
    01:49:19.887 : en:"What Were You The God Of Again?"
    01:54:57.599 : en:Ragnarok
    02:00:37.522 : en:End Credits

    Релиз подготовлен 60 - fps

  2. Стаж:
    3 года 2 месяца
    Сообщений:
    25
    Пол:
    Мужской
    Классный фильм, интересный, захватывающий!!! Вот ради таких фильмов 60fps и нужно! Спасибо!
    25-Фев-2018 09:12 (спустя 1 день 2 часа)


Вы не можете начинать темы
Вы не можете отвечать на сообщения
Вы не можете редактировать свои сообщения
Вы не можете удалять свои сообщения
Вы не можете голосовать в опросах
Вы не можете прикреплять файлы к сообщениям
Вы не можете скачивать файлы