Несокрушимый (2018) BDRip 720p | 60 FPS Операция «Ы» и другие приключения Шурика (1965) BDRip-AVC | 60 fps Место встречи изменить нельзя (1979) DVDRip | 60 fps Завод (2018) BDRip 1080p | 60 fps Балканский рубеж (2019) BDRip 1080p | 60 fps Танки (2018) BDRip 1080p | 60 FPS Сволочи / Swine (2006) BDRip 1080p | 60fps Гоголь. Страшная месть (2018) BDRip 1080p | 60 FPS
  1. Longevity:
    2 years 10 months
    Posts:
    924
    Gender:
    Male
    Фильм «Почему у этих М всё всегда через Ж?» Фильм- Информация
    Название: Выкрутасы
    Оригинальное название: Выкрутасы
    Год выхода: 2010
    Жанр: мелодрама, комедия, семейный, спорт
    Режиссер: Леван Габриадзе
    Сценарий: Роман Непомнящий, Олег Маловичко, Алексей Федоров
    Продюсер: Тимур Бекмамбетов, Ива Стромилова, Карина Синенко
    В ролях: Константин Хабенский,Милла Йовович,Иван Ургант,Сергей Гармаш,Владимир Меньшов,Ольга Тумайкина,Галина Логинова,Сергей Селин,Сергей Шеховцов,Александр Кержаков
    --Сюжет:
    Слава Колотилов, простой школьный учитель из сонного приморского городка с небанальным названием «Пальчики», приехал покорять Москву с рукописью романа в руках, а покорил… красавицу Надю. Уже близится свадьба, ресторан заказан и гости приглашены, но цепкие Пальчики не дают Славе вырваться к суженой, подстраивая череду «непреодолимых обстоятельств». Вот и приходится Славе выкручиваться, рассказывая Наде по телефону небылицы о страшных происшествиях и катастрофах. А в далёкой Москве в это время Надя отбивает атаки своего бывшего ухажера Дани, готового пойти на любые выкрутасы, лишь бы вернуть себе невесту…-- Страна: Россия
    Продолжительность: 01:40:48

    Файл
    Кодек: MPEG4/ISO/AVC H.264/High@L4.1
    Формат: MKV
    Качество: BDRip 1080p | 60 fps
    Видео: 1920 x 816 (2.353) | 59.940 fps | 11,3 Мбит/сек
    Аудио 1: AC-3| 5.1 | 48 kHz | 640 Кбит/сек | 16 bit | Оригинал
    Аудио 2: DTS| 5.1 | 48 kHz | 1509 Кбит/сек | 16 bit | Оригинал
    Субтитры: НЕТ

    MedifInfo

    Видео
    Идентификатор : 1
    Формат : AVC
    Формат/Информация : Advanced Video Codec
    Профиль формата : High@L4.1
    Параметр CABAC формата : Да
    Параметр ReFrames формата : 5 кадров
    Идентификатор кодека : V_MPEG4/ISO/AVC
    Продолжительность : 1 ч. 40 м.
    Битрейт : 11,3 Мбит/сек
    Ширина : 1920 пикселей
    Высота : 816 пикселей
    Соотношение сторон : 2,35:1
    Режим частоты кадров : Постоянный
    Частота кадров : 59,940 (60000/1001) кадров/сек
    Цветовое пространство : YUV
    Субдискретизация насыщенности : 4:2:0
    Битовая глубина : 8 бит
    Тип развёртки : Прогрессивная
    Бит/(Пиксели*Кадры) : 0.120
    Размер потока : 7,92 Гбайт (84%)
    Заголовок : Талямба: 60-fps.org
    Библиотека кодирования : x264 core 146 r2538 121396c
    Настройки программы : cabac=1 / ref=5 / deblock=1:-3:-3 / analyse=0x3:0x113 / me=umh / subme=8 / psy=1 / psy_rd=1.00:0.25 / mixed_ref=1 / me_range=32 / chroma_me=1 / trellis=1 / 8x8dct=1 / cqm=0 / deadzone=6,6 / fast_pskip=1 / chroma_qp_offset=-4 / threads=12 / lookahead_threads=2 / sliced_threads=0 / nr=0 / decimate=0 / interlaced=0 / bluray_compat=0 / constrained_intra=0 / bframes=3 / b_pyramid=2 / b_adapt=2 / b_bias=0 / direct=3 / weightb=1 / open_gop=0 / weightp=2 / keyint=599 / keyint_min=59 / scenecut=40 / intra_refresh=0 / rc_lookahead=50 / rc=2pass / mbtree=1 / bitrate=11300 / ratetol=1.0 / qcomp=0.80 / qpmin=0 / qpmax=69 / qpstep=4 / cplxblur=20.0 / qblur=0.5 / vbv_maxrate=50000 / vbv_bufsize=50000 / nal_hrd=none / filler=0 / ip_ratio=1.10 / aq=1:0.50
    Язык : Russian
    Default : Да
    Forced : Нет
    Аудио #1
    Идентификатор : 2
    Формат : DTS
    Формат/Информация : Digital Theater Systems
    Режим : 16
    Параметр Endianness формата : Big
    Идентификатор кодека : A_DTS
    Продолжительность : 1 ч. 40 м.
    Вид битрейта : Постоянный
    Битрейт : 1509 Кбит/сек
    Каналы : 6 каналов
    Расположение каналов : Front: L C R, Side: L R, LFE
    Частота : 48,0 КГц
    Частота кадров : 93,750 кадра/сек (512 spf)
    Битовая глубина : 16 бит
    Метод сжатия : С потерями
    Размер потока : 1,06 Гбайт (11%)
    Заголовок : Оригинал: DTS
    Язык : Russian
    Default : Да
    Forced : Нет
    Аудио #2
    Идентификатор : 3
    Формат : AC-3
    Формат/Информация : Audio Coding 3
    Расширение режима : CM (complete main)
    Параметр Endianness формата : Big
    Идентификатор кодека : A_AC3
    Продолжительность : 1 ч. 40 м.
    Вид битрейта : Постоянный
    Битрейт : 640 Кбит/сек
    Каналы : 6 каналов
    Расположение каналов : Front: L C R, Side: L R, LFE
    Частота : 48,0 КГц
    Частота кадров : 31,250 кадров/сек (1536 spf)
    Битовая глубина : 16 бит
    Метод сжатия : С потерями
    Размер потока : 461 Мбайт (5%)
    Заголовок : Оригинал: AC3
    Язык : Russian
    Default : Нет
    Forced : Нет
    Меню
    00:00:00.000 : en:00:00:00.000
    00:04:45.202 : en:00:04:45.202
    00:10:52.402 : en:00:10:52.402
    00:15:59.041 : en:00:15:59.041
    00:21:45.012 : en:00:21:45.012
    00:26:23.415 : en:00:26:23.415
    00:33:21.416 : en:00:33:21.416
    00:38:31.976 : en:00:38:31.976
    00:46:34.917 : en:00:46:34.917
    00:51:43.600 : en:00:51:43.600
    00:58:07.150 : en:00:58:07.150
    01:02:06.598 : en:01:02:06.598
    01:09:24.994 : en:01:09:24.994
    01:15:02.873 : en:01:15:02.873
    01:20:04.842 : en:01:20:04.842
    01:25:19.698 : en:01:25:19.698
    01:29:35.453 : en:01:29:35.453
    01:34:11.771 : en:01:34:11.771


You cannot post new topics in this forum
You cannot reply to topics in this forum
You cannot edit your posts in this forum
You cannot delete your posts in this forum
You cannot vote in polls in this forum
You cannot attach files in this forum
You cannot download files in this forum