Тайна Коко / Coco (2017) BDRip 1080p | 60 fps Фердинанд / Ferdinand (2017) BDRip 720p | 60 fps Тачки 3 / Cars 3 (2017) BDRip 720p | 60 fps Зверополис / Zootopia (2016) BDRip 1080p | 60 fps Тачки 3 / Cars 3 (2017) BDRip 1080p | 60 fps Три богатыря и принцесса Египта (2017) BDRip 720p | 60 fps Гадкий я 3 / Despicable Me 3 (2017) BDRip 720p | 60 fps Ральф / Wreck-It Ralph (2012) BDRip 720p | 60 fps
  1. Стаж:
    3 года 11 месяцев
    Сообщений:
    2412
    Пол:
    Мужской
    «Auditions begin 2016»- Информация
    Название: Зверопой
    Оригинальное название: Sing
    Год выхода: 2016
    Жанр: Мультфильм, комедия, семейный, музыка
    Режиссер: Christophe Lourdelet, Гарт Дженнингс
    Сценарий: Гарт Дженнингс
    Продюсер: Джанет Хили, Бретт Хоффман, Игорь Хайт
    Персонажей озвучивали: Мэттью МакКонахи, Риз Уизерспун, Сет МакФарлейн, Скарлетт Йоханссон, Джон Си Райли, Тэрон Эджертон, Тори Келли, Дженнифер Сондерс, Дженнифер Хадсон, Гарт Дженнингс
    --Сюжет:
    В мире, который населяют звери, коала по имени Бастер Мун изо всех сил пытается предотвратить закрытие своего театра. В итоге Бастер и его друг, баран Эдди, устраивают конкурс певцов, предлагая принять участие каждому жителю города.
    - Страна: США
    Продолжительность: 01:47:53

    Файл
    Кодек: MPEG4/ISO/AVC/H.264
    Формат: MKV
    Качество: BDRip 1080p | 60 fps
    Видео: 1920 x 1036 (1.853) | 57.542 fps | 25.0 Мбит/сек
    Аудио 1: AC3 | 5.1 | 48 kHz | 384 kbps | 16 bit | Дубляж - iTunes |
    Аудио 2: AC3 | 2.0 | 48 kHz | 192 kbps | 16 bit | Дубляж - iTunes |
    Аудио 3: AC3 | 5.1 | 48 kHz | 448 kbps | 16 bit | Eng |
    Субтитры: Русские, Английские

    MedifInfo

    Видео
    Идентификатор : 1
    Формат : AVC
    Формат/Информация : Advanced Video Codec
    Профиль формата : High@L4.1
    Параметр CABAC формата : Да
    Параметр ReFrames формата : 4 кадра
    Идентификатор кодека : V_MPEG4/ISO/AVC
    Продолжительность : 1 ч. 47 м.
    Битрейт : 25,0 Мбит/сек
    Ширина : 1920 пикселей
    Высота : 1036 пикселей
    Соотношение сторон : 1,85:1
    Режим частоты кадров : Постоянный
    Частота кадров : 57,582 кадров/сек
    Частота кадров в оригинале : 57,542 кадров/сек
    Цветовое пространство : YUV
    Субдискретизация насыщенности : 4:2:0
    Битовая глубина : 8 бит
    Тип развёртки : Прогрессивная
    Бит/(Пиксели*Кадры) : 0.218
    Размер потока : 18,5 Гбайт (94%)
    Заголовок : www.60-fps.org
    Библиотека кодирования : x264 core 148 r2638 7599210
    Настройки программы : cabac=1 / ref=4 / deblock=1:-3:-3 / analyse=0x3:0x113 / me=umh / subme=8 / psy=1 / psy_rd=1.00:0.25 / mixed_ref=1 / me_range=32 / chroma_me=1 / trellis=1 / 8x8dct=1 / cqm=0 / deadzone=6,6 / fast_pskip=1 / chroma_qp_offset=-4 / threads=12 / lookahead_threads=2 / sliced_threads=0 / nr=0 / decimate=0 / interlaced=0 / bluray_compat=0 / constrained_intra=0 / bframes=3 / b_pyramid=2 / b_adapt=2 / b_bias=0 / direct=3 / weightb=1 / open_gop=0 / weightp=2 / keyint=575 / keyint_min=57 / scenecut=40 / intra_refresh=0 / rc_lookahead=50 / rc=2pass / mbtree=1 / bitrate=24999 / ratetol=1.0 / qcomp=0.80 / qpmin=0 / qpmax=69 / qpstep=4 / cplxblur=20.0 / qblur=0.5 / vbv_maxrate=62500 / vbv_bufsize=78125 / nal_hrd=none / filler=0 / ip_ratio=1.10 / aq=1:0.50
    Default : Да
    Forced : Нет
    Аудио #1
    Идентификатор : 2
    Формат : AC-3
    Формат/Информация : Audio Coding 3
    Расширение режима : CM (complete main)
    Параметр Endianness формата : Big
    Идентификатор кодека : A_AC3
    Продолжительность : 1 ч. 47 м.
    Вид битрейта : Постоянный
    Битрейт : 384 Кбит/сек
    Каналы : 6 каналов
    Расположение каналов : Front: L C R, Side: L R, LFE
    Частота : 48,0 КГц
    Битовая глубина : 16 бит
    Метод сжатия : С потерями
    Размер потока : 296 Мбайт (1%)
    Заголовок : Дубляж - iTunes
    Язык : Russian
    Default : Да
    Forced : Нет
    Аудио #2
    Идентификатор : 3
    Формат : AC-3
    Формат/Информация : Audio Coding 3
    Расширение режима : CM (complete main)
    Параметр Endianness формата : Big
    Идентификатор кодека : A_AC3
    Продолжительность : 1 ч. 47 м.
    Вид битрейта : Постоянный
    Битрейт : 192 Кбит/сек
    Каналы : 2 канала
    Расположение каналов : Front: L R
    Частота : 48,0 КГц
    Битовая глубина : 16 бит
    Метод сжатия : С потерями
    Размер потока : 148 Мбайт (1%)
    Заголовок : Дубляж - iTunes
    Язык : Ukrainian
    Default : Нет
    Forced : Нет
    Аудио #3
    Идентификатор : 4
    Формат : AC-3
    Формат/Информация : Audio Coding 3
    Расширение режима : CM (complete main)
    Параметр Endianness формата : Big
    Идентификатор кодека : A_AC3
    Продолжительность : 1 ч. 47 м.
    Вид битрейта : Постоянный
    Битрейт : 448 Кбит/сек
    Каналы : 6 каналов
    Расположение каналов : Front: L C R, Side: L R, LFE
    Частота : 48,0 КГц
    Битовая глубина : 16 бит
    Метод сжатия : С потерями
    Размер потока : 346 Мбайт (2%)
    Заголовок : eng
    Язык : English
    Default : Нет
    Forced : Нет
    Текст #1
    Идентификатор : 5
    Формат : UTF-8
    Идентификатор кодека : S_TEXT/UTF8
    Идентификатор кодека/Информация : UTF-8 Plain Text
    Язык : Russian
    Default : Нет
    Forced : Нет
    Текст #2
    Идентификатор : 6
    Формат : UTF-8
    Идентификатор кодека : S_TEXT/UTF8
    Идентификатор кодека/Информация : UTF-8 Plain Text
    Язык : English
    Default : Нет
    Forced : Нет
    Текст #3
    Идентификатор : 7
    Формат : UTF-8
    Идентификатор кодека : S_TEXT/UTF8
    Идентификатор кодека/Информация : UTF-8 Plain Text
    Язык : English
    Default : Нет
    Forced : Нет
    Меню
    00:00:00.000 : en:00:00:00.000
    00:04:29.352 : en:00:04:29.352
    00:10:36.469 : en:00:10:36.469
    00:14:04.677 : en:00:14:04.677
    00:18:32.653 : en:00:18:32.653
    00:25:14.722 : en:00:25:14.722
    00:30:04.052 : en:00:30:04.052
    00:35:11.776 : en:00:35:11.776
    00:40:07.405 : en:00:40:07.405
    00:44:36.132 : en:00:44:36.132
    00:50:26.649 : en:00:50:26.649
    00:55:36.208 : en:00:55:36.208
    01:04:40.710 : en:01:04:40.710
    01:14:03.981 : en:01:14:03.981
    01:19:17.962 : en:01:19:17.962
    01:23:59.159 : en:01:23:59.159
    01:26:56.461 : en:01:26:56.461
    01:30:38.266 : en:01:30:38.266
    01:34:47.181 : en:01:34:47.181
    01:40:16.010 : en:01:40:16.010

    Релиз подготовлен 60 - fps

  2. Стаж:
    2 года 1 месяц
    Сообщений:
    596
    Пол:
    Мужской
    Спасибос... !
    05-Май-2017 09:11 (спустя 22 часа)


Вы не можете начинать темы
Вы не можете отвечать на сообщения
Вы не можете редактировать свои сообщения
Вы не можете удалять свои сообщения
Вы не можете голосовать в опросах
Вы не можете прикреплять файлы к сообщениям
Вы не можете скачивать файлы